  0
SECTION
  2
HEADER
  9
$ACADVER
  1
AC1015
  9
$ACADMAINTVER
 70
    20
  9
$DWGCODEPAGE
  3
ANSI_932
  9
$INSBASE
 10
0.0
 20
0.0
 30
0.0
  9
$EXTMIN
 10
104.675864790593
 20
89.25011864492478
 30
-0.0000004391275257
  9
$EXTMAX
 10
4381.678232607665
 20
3113.701793029848
 30
1596.430843560878
  9
$LIMMIN
 10
0.0
 20
0.0
  9
$LIMMAX
 10
420.0
 20
297.0
  9
$ORTHOMODE
 70
     0
  9
$REGENMODE
 70
     1
  9
$FILLMODE
 70
     1
  9
$QTEXTMODE
 70
     0
  9
$MIRRTEXT
 70
     0
  9
$LTSCALE
 40
1.0
  9
$ATTMODE
 70
     1
  9
$TEXTSIZE
 40
2.5
  9
$TRACEWID
 40
1.0
  9
$TEXTSTYLE
  7
Standard
  9
$CLAYER
  8
0
  9
$CELTYPE
  6
ByLayer
  9
$CECOLOR
 62
   256
  9
$CELTSCALE
 40
1.0
  9
$DISPSILH
 70
     0
  9
$DIMSCALE
 40
1.0
  9
$DIMASZ
 40
2.5
  9
$DIMEXO
 40
0.625
  9
$DIMDLI
 40
3.75
  9
$DIMRND
 40
0.0
  9
$DIMDLE
 40
0.0
  9
$DIMEXE
 40
1.25
  9
$DIMTP
 40
0.0
  9
$DIMTM
 40
0.0
  9
$DIMTXT
 40
2.5
  9
$DIMCEN
 40
2.5
  9
$DIMTSZ
 40
0.0
  9
$DIMTOL
 70
     0
  9
$DIMLIM
 70
     0
  9
$DIMTIH
 70
     0
  9
$DIMTOH
 70
     0
  9
$DIMSE1
 70
     0
  9
$DIMSE2
 70
     0
  9
$DIMTAD
 70
     1
  9
$DIMZIN
 70
     8
  9
$DIMBLK
  1

  9
$DIMASO
 70
     1
  9
$DIMSHO
 70
     1
  9
$DIMPOST
  1

  9
$DIMAPOST
  1

  9
$DIMALT
 70
     0
  9
$DIMALTD
 70
     3
  9
$DIMALTF
 40
0.03937007874016
  9
$DIMLFAC
 40
1.0
  9
$DIMTOFL
 70
     1
  9
$DIMTVP
 40
0.0
  9
$DIMTIX
 70
     0
  9
$DIMSOXD
 70
     0
  9
$DIMSAH
 70
     0
  9
$DIMBLK1
  1

  9
$DIMBLK2
  1

  9
$DIMSTYLE
  2
ISO-25
  9
$DIMCLRD
 70
     0
  9
$DIMCLRE
 70
     0
  9
$DIMCLRT
 70
     0
  9
$DIMTFAC
 40
1.0
  9
$DIMGAP
 40
0.625
  9
$DIMJUST
 70
     0
  9
$DIMSD1
 70
     0
  9
$DIMSD2
 70
     0
  9
$DIMTOLJ
 70
     0
  9
$DIMTZIN
 70
     8
  9
$DIMALTZ
 70
     0
  9
$DIMALTTZ
 70
     0
  9
$DIMUPT
 70
     0
  9
$DIMDEC
 70
     2
  9
$DIMTDEC
 70
     2
  9
$DIMALTU
 70
     2
  9
$DIMALTTD
 70
     3
  9
$DIMTXSTY
  7
Standard
  9
$DIMAUNIT
 70
     0
  9
$DIMADEC
 70
     0
  9
$DIMALTRND
 40
0.0
  9
$DIMAZIN
 70
     0
  9
$DIMDSEP
 70
    44
  9
$DIMATFIT
 70
     3
  9
$DIMFRAC
 70
     0
  9
$DIMLDRBLK
  1

  9
$DIMLUNIT
 70
     2
  9
$DIMLWD
 70
    -2
  9
$DIMLWE
 70
    -2
  9
$DIMTMOVE
 70
     0
  9
$LUNITS
 70
     2
  9
$LUPREC
 70
     4
  9
$SKETCHINC
 40
1.0
  9
$FILLETRAD
 40
0.0
  9
$AUNITS
 70
     0
  9
$AUPREC
 70
     0
  9
$MENU
  1
.
  9
$ELEVATION
 40
0.0
  9
$PELEVATION
 40
0.0
  9
$THICKNESS
 40
0.0
  9
$LIMCHECK
 70
     0
  9
$CHAMFERA
 40
0.0
  9
$CHAMFERB
 40
0.0
  9
$CHAMFERC
 40
0.0
  9
$CHAMFERD
 40
0.0
  9
$SKPOLY
 70
     0
  9
$TDCREATE
 40
2456987.669766343
  9
$TDUCREATE
 40
2456987.294766343
  9
$TDUPDATE
 40
2456987.670686122
  9
$TDUUPDATE
 40
2456987.295686122
  9
$TDINDWG
 40
0.0009241204
  9
$TDUSRTIMER
 40
0.0009241204
  9
$USRTIMER
 70
     1
  9
$ANGBASE
 50
0.0
  9
$ANGDIR
 70
     0
  9
$PDMODE
 70
     0
  9
$PDSIZE
 40
0.0
  9
$PLINEWID
 40
0.0
  9
$SPLFRAME
 70
     0
  9
$SPLINETYPE
 70
     6
  9
$SPLINESEGS
 70
     8
  9
$HANDSEED
  5
529
  9
$SURFTAB1
 70
     6
  9
$SURFTAB2
 70
     6
  9
$SURFTYPE
 70
     6
  9
$SURFU
 70
     6
  9
$SURFV
 70
     6
  9
$UCSBASE
  2

  9
$UCSNAME
  2

  9
$UCSORG
 10
0.0
 20
0.0
 30
0.0
  9
$UCSXDIR
 10
1.0
 20
0.0
 30
0.0
  9
$UCSYDIR
 10
0.0
 20
1.0
 30
0.0
  9
$UCSORTHOREF
  2

  9
$UCSORTHOVIEW
 70
     0
  9
$UCSORGTOP
 10
0.0
 20
0.0
 30
0.0
  9
$UCSORGBOTTOM
 10
0.0
 20
0.0
 30
0.0
  9
$UCSORGLEFT
 10
0.0
 20
0.0
 30
0.0
  9
$UCSORGRIGHT
 10
0.0
 20
0.0
 30
0.0
  9
$UCSORGFRONT
 10
0.0
 20
0.0
 30
0.0
  9
$UCSORGBACK
 10
0.0
 20
0.0
 30
0.0
  9
$PUCSBASE
  2

  9
$PUCSNAME
  2

  9
$PUCSORG
 10
0.0
 20
0.0
 30
0.0
  9
$PUCSXDIR
 10
1.0
 20
0.0
 30
0.0
  9
$PUCSYDIR
 10
0.0
 20
1.0
 30
0.0
  9
$PUCSORTHOREF
  2

  9
$PUCSORTHOVIEW
 70
     0
  9
$PUCSORGTOP
 10
0.0
 20
0.0
 30
0.0
  9
$PUCSORGBOTTOM
 10
0.0
 20
0.0
 30
0.0
  9
$PUCSORGLEFT
 10
0.0
 20
0.0
 30
0.0
  9
$PUCSORGRIGHT
 10
0.0
 20
0.0
 30
0.0
  9
$PUCSORGFRONT
 10
0.0
 20
0.0
 30
0.0
  9
$PUCSORGBACK
 10
0.0
 20
0.0
 30
0.0
  9
$USERI1
 70
     0
  9
$USERI2
 70
     0
  9
$USERI3
 70
     0
  9
$USERI4
 70
     0
  9
$USERI5
 70
     0
  9
$USERR1
 40
0.0
  9
$USERR2
 40
0.0
  9
$USERR3
 40
0.0
  9
$USERR4
 40
0.0
  9
$USERR5
 40
0.0
  9
$WORLDVIEW
 70
     1
  9
$SHADEDGE
 70
     3
  9
$SHADEDIF
 70
    70
  9
$TILEMODE
 70
     1
  9
$MAXACTVP
 70
    64
  9
$PINSBASE
 10
0.0
 20
0.0
 30
0.0
  9
$PLIMCHECK
 70
     0
  9
$PEXTMIN
 10
0.0
 20
0.0
 30
0.0
  9
$PEXTMAX
 10
0.0
 20
0.0
 30
0.0
  9
$PLIMMIN
 10
0.0
 20
0.0
  9
$PLIMMAX
 10
12.0
 20
9.0
  9
$UNITMODE
 70
     0
  9
$VISRETAIN
 70
     1
  9
$PLINEGEN
 70
     0
  9
$PSLTSCALE
 70
     1
  9
$TREEDEPTH
 70
  3020
  9
$CMLSTYLE
  2
Standard
  9
$CMLJUST
 70
     0
  9
$CMLSCALE
 40
20.0
  9
$PROXYGRAPHICS
 70
     1
  9
$MEASUREMENT
 70
     1
  9
$CELWEIGHT
370
    -1
  9
$ENDCAPS
280
     0
  9
$JOINSTYLE
280
     0
  9
$LWDISPLAY
290
     0
  9
$INSUNITS
 70
     4
  9
$HYPERLINKBASE
  1

  9
$STYLESHEET
  1

  9
$XEDIT
290
     1
  9
$CEPSNTYPE
380
     0
  9
$PSTYLEMODE
290
     1
  9
$FINGERPRINTGUID
  2
{1EA9B93E-8412-49C6-904C-F7B7FA887FB3}
  9
$VERSIONGUID
  2
{521B95A5-43D7-4C0F-8771-7B42AB41A59E}
  9
$EXTNAMES
290
     1
  9
$PSVPSCALE
 40
0.0
  9
$OLESTARTUP
290
     0
  0
ENDSEC
  0
SECTION
  2
CLASSES
  0
CLASS
  1
ACDBDICTIONARYWDFLT
  2
AcDbDictionaryWithDefault
  3
ObjectDBX Classes
 90
        0
280
     0
281
     0
  0
CLASS
  1
DICTIONARYVAR
  2
AcDbDictionaryVar
  3
ObjectDBX Classes
 90
        0
280
     0
281
     0
  0
CLASS
  1
TABLESTYLE
  2
AcDbTableStyle
  3
ObjectDBX Classes
 90
     4095
280
     0
281
     0
  0
CLASS
  1
MATERIAL
  2
AcDbMaterial
  3
ObjectDBX Classes
 90
     1024
280
     0
281
     0
  0
CLASS
  1
VISUALSTYLE
  2
AcDbVisualStyle
  3
ObjectDBX Classes
 90
     4095
280
     0
281
     0
  0
CLASS
  1
DIMASSOC
  2
AcDbDimAssoc
  3
"AcDbDimAssoc|Product Desc:     AcDim ARX App For Dimension|Company:          Autodesk, Inc.|WEB Address:      www.autodesk.com"
 90
        0
280
     0
281
     0
  0
CLASS
  1
ACDBPLACEHOLDER
  2
AcDbPlaceHolder
  3
ObjectDBX Classes
 90
        0
280
     0
281
     0
  0
CLASS
  1
LAYOUT
  2
AcDbLayout
  3
ObjectDBX Classes
 90
        0
280
     0
281
     0
  0
ENDSEC
  0
SECTION
  2
TABLES
  0
TABLE
  2
VPORT
  5
8
330
0
100
AcDbSymbolTable
 70
     1
  0
VPORT
  5
ED
330
8
100
AcDbSymbolTableRecord
100
AcDbViewportTableRecord
  2
*Active
 70
     0
 10
0.0
 20
0.0
 11
1.0
 21
1.0
 12
3187.403954839288
 22
653.1817239070392
 13
0.0
 23
0.0
 14
10.0
 24
10.0
 15
10.0
 25
10.0
 16
0.0
 26
0.0
 36
1.0
 17
0.0
 27
0.0
 37
0.0
 40
5780.546992070237
 41
1.470674486803519
 42
50.0
 43
0.0
 44
0.0
 50
0.0
 51
0.0
 71
     0
 72
  1000
 73
     1
 74
     3
 75
     0
 76
     0
 77
     0
 78
     0
281
     0
 65
     1
110
0.0
120
0.0
130
0.0
111
1.0
121
0.0
131
0.0
112
0.0
122
1.0
132
0.0
 79
     0
146
0.0
  0
ENDTAB
  0
TABLE
  2
LTYPE
  5
5
330
0
100
AcDbSymbolTable
 70
     2
  0
LTYPE
  5
14
330
5
100
AcDbSymbolTableRecord
100
AcDbLinetypeTableRecord
  2
ByBlock
 70
     0
  3

 72
    65
 73
     0
 40
0.0
  0
LTYPE
  5
15
330
5
100
AcDbSymbolTableRecord
100
AcDbLinetypeTableRecord
  2
ByLayer
 70
     0
  3

 72
    65
 73
     0
 40
0.0
  0
LTYPE
  5
16
330
5
100
AcDbSymbolTableRecord
100
AcDbLinetypeTableRecord
  2
Continuous
 70
     0
  3
Solid line
 72
    65
 73
     0
 40
0.0
  0
LTYPE
  5
1A1
330
5
100
AcDbSymbolTableRecord
100
AcDbLinetypeTableRecord
  2
CENTER
 70
     0
  3
____ _ ____ _ ____ _ ____ _ ____ _ ____ _ ____
 72
    65
 73
     4
 40
0.6
 49
0.375
 74
     0
 49
-0.075
 74
     0
 49
0.075
 74
     0
 49
-0.075
 74
     0
  0
ENDTAB
  0
TABLE
  2
LAYER
  5
2
102
{ACAD_XDICTIONARY
360
1A9
102
}
330
0
100
AcDbSymbolTable
 70
     3
  0
LAYER
  5
10
330
2
100
AcDbSymbolTableRecord
100
AcDbLayerTableRecord
  2
0
 70
     0
 62
     7
  6
Continuous
370
    -3
390
F
  0
LAYER
  5
1A2
330
2
100
AcDbSymbolTableRecord
100
AcDbLayerTableRecord
  2
Defpoints
 70
     0
 62
     7
  6
Continuous
290
     0
370
    -3
390
F
  0
LAYER
  5
1A3
330
2
100
AcDbSymbolTableRecord
100
AcDbLayerTableRecord
  2
1
 70
     0
 62
     7
  6
Continuous
370
    13
390
F
1001
AcAecLayerStandard
1000

1000

  0
ENDTAB
  0
TABLE
  2
STYLE
  5
3
330
0
100
AcDbSymbolTable
 70
     2
  0
STYLE
  5
11
330
3
100
AcDbSymbolTableRecord
100
AcDbTextStyleTableRecord
  2
Standard
 70
     0
 40
0.0
 41
1.0
 50
0.0
 71
     0
 42
2.5
  3
txt.shx
  4
extfont2.shx
  0
STYLE
  5
1A4
330
3
100
AcDbSymbolTableRecord
100
AcDbTextStyleTableRecord
  2
\U+6837式 1
 70
     0
 40
0.0
 41
1.0
 50
0.0
 71
     0
 42
0.2
  3
MS PGothic.ttf
  4

1001
ACAD
1000
MS PGothic
1071
    32818
1001
AcadStringInfo
1000
MIFCodePage
1070
     5
  0
ENDTAB
  0
TABLE
  2
VIEW
  5
6
330
0
100
AcDbSymbolTable
 70
     0
  0
ENDTAB
  0
TABLE
  2
UCS
  5
7
330
0
100
AcDbSymbolTable
 70
     0
  0
ENDTAB
  0
TABLE
  2
APPID
  5
9
330
0
100
AcDbSymbolTable
 70
     6
  0
APPID
  5
12
330
9
100
AcDbSymbolTableRecord
100
AcDbRegAppTableRecord
  2
ACAD
 70
     0
  0
APPID
  5
9E
330
9
100
AcDbSymbolTableRecord
100
AcDbRegAppTableRecord
  2
ACAD_PSEXT
 70
     0
  0
APPID
  5
1A6
330
9
100
AcDbSymbolTableRecord
100
AcDbRegAppTableRecord
  2
AcAecLayerStandard
 70
     0
  0
APPID
  5
1A7
330
9
100
AcDbSymbolTableRecord
100
AcDbRegAppTableRecord
  2
AcadStringInfo
 70
     0
  0
APPID
  5
1A8
330
9
100
AcDbSymbolTableRecord
100
AcDbRegAppTableRecord
  2
ACAD_DSTYLE_DIMJOGGED_JOGANGLE_SYMBOL
 70
     0
  0
APPID
  5
528
330
9
100
AcDbSymbolTableRecord
100
AcDbRegAppTableRecord
  2
ACAD_DSTYLE_DIMEXT_LENGTH
 70
     0
  0
ENDTAB
  0
TABLE
  2
DIMSTYLE
  5
A
330
0
100
AcDbSymbolTable
 70
     2
100
AcDbDimStyleTable
 71
     1
340
27
  0
DIMSTYLE
105
27
330
A
100
AcDbSymbolTableRecord
100
AcDbDimStyleTableRecord
  2
ISO-25
 70
     0
 41
2.5
 42
0.625
 43
3.75
 44
1.25
 73
     0
 74
     0
 77
     1
 78
     8
140
2.5
141
2.5
143
0.03937007874016
147
0.625
171
     3
172
     1
271
     2
272
     2
274
     3
278
    44
283
     0
284
     8
340
11
  0
DIMSTYLE
105
1A5
102
{ACAD_REACTORS
330
288
330
289
330
28A
330
28B
330
298
330
299
330
29C
330
2A1
330
2A2
330
2A5
330
2A6
330
3D4
330
3D5
330
3D6
330
3D7
330
3E4
330
3E5
330
3E8
330
3ED
330
3EE
330
3F1
330
3F2
102
}
330
A
100
AcDbSymbolTableRecord
100
AcDbDimStyleTableRecord
  2
sunopo　1
 70
     0
 41
25.0
 42
5.0
 43
1.0
 44
1.0
 47
0.01
 48
0.01
 73
     0
 74
     0
 77
     2
 78
     8
140
35.0
141
0.0
147
15.0
176
   256
178
   256
271
     2
272
     2
284
     8
340
1A4
341
116
342
116
371
     9
372
     9
1001
ACAD_DSTYLE_DIMEXT_LENGTH
1070
   378
1040
0.18
1001
ACAD_DSTYLE_DIMJOGGED_JOGANGLE_SYMBOL
1070
   384
1040
1.570796326794896
  0
ENDTAB
  0
TABLE
  2
BLOCK_RECORD
  5
1
330
0
100
AcDbSymbolTable
 70
    25
  0
BLOCK_RECORD
  5
1F
330
1
100
AcDbSymbolTableRecord
100
AcDbBlockTableRecord
  2
*Model_Space
340
22
  0
BLOCK_RECORD
  5
D2
330
1
100
AcDbSymbolTableRecord
100
AcDbBlockTableRecord
  2
*Paper_Space
340
D3
  0
BLOCK_RECORD
  5
D6
330
1
100
AcDbSymbolTableRecord
100
AcDbBlockTableRecord
  2
*Paper_Space0
340
D7
  0
BLOCK_RECORD
  5
116
330
1
100
AcDbSymbolTableRecord
100
AcDbBlockTableRecord
  2
_Open30
340
0
102
{BLKREFS
331
121
331
122
331
12D
331
12E
331
13A
331
13B
331
145
331
14F
331
150
331
18E
331
18F
331
15B
331
15C
331
168
331
169
331
19A
331
19B
331
174
331
175
331
181
331
182
331
4AE
331
4AF
331
4B7
331
4B8
331
4C1
331
4C2
331
4C9
331
4D0
331
4D1
331
4DB
331
4DC
331
4E6
331
4E7
331
4F0
331
4F1
331
4FA
331
4FB
331
505
331
506
331
50F
331
510
102
}
  0
BLOCK_RECORD
  5
11C
330
1
100
AcDbSymbolTableRecord
100
AcDbBlockTableRecord
  2
*D2
340
0
  0
BLOCK_RECORD
  5
128
330
1
100
AcDbSymbolTableRecord
100
AcDbBlockTableRecord
  2
*D3
340
0
  0
BLOCK_RECORD
  5
134
330
1
100
AcDbSymbolTableRecord
100
AcDbBlockTableRecord
  2
*D4
340
0
  0
BLOCK_RECORD
  5
141
330
1
100
AcDbSymbolTableRecord
100
AcDbBlockTableRecord
  2
*D5
340
0
  0
BLOCK_RECORD
  5
149
330
1
100
AcDbSymbolTableRecord
100
AcDbBlockTableRecord
  2
*D6
340
0
  0
BLOCK_RECORD
  5
156
330
1
100
AcDbSymbolTableRecord
100
AcDbBlockTableRecord
  2
*D7
340
0
  0
BLOCK_RECORD
  5
162
330
1
100
AcDbSymbolTableRecord
100
AcDbBlockTableRecord
  2
*D8
340
0
  0
BLOCK_RECORD
  5
16F
330
1
100
AcDbSymbolTableRecord
100
AcDbBlockTableRecord
  2
*D9
340
0
  0
BLOCK_RECORD
  5
17B
330
1
100
AcDbSymbolTableRecord
100
AcDbBlockTableRecord
  2
*D10
340
0
  0
BLOCK_RECORD
  5
188
330
1
100
AcDbSymbolTableRecord
100
AcDbBlockTableRecord
  2
*D11
340
0
  0
BLOCK_RECORD
  5
195
330
1
100
AcDbSymbolTableRecord
100
AcDbBlockTableRecord
  2
*D12
340
0
  0
BLOCK_RECORD
  5
43F
330
1
100
AcDbSymbolTableRecord
100
AcDbBlockTableRecord
  2
*D14
340
0
  0
BLOCK_RECORD
  5
44B
330
1
100
AcDbSymbolTableRecord
100
AcDbBlockTableRecord
  2
*D15
340
0
  0
BLOCK_RECORD
  5
457
330
1
100
AcDbSymbolTableRecord
100
AcDbBlockTableRecord
  2
*D16
340
0
  0
BLOCK_RECORD
  5
464
330
1
100
AcDbSymbolTableRecord
100
AcDbBlockTableRecord
  2
*D17
340
0
  0
BLOCK_RECORD
  5
46C
330
1
100
AcDbSymbolTableRecord
100
AcDbBlockTableRecord
  2
*D18
340
0
  0
BLOCK_RECORD
  5
479
330
1
100
AcDbSymbolTableRecord
100
AcDbBlockTableRecord
  2
*D19
340
0
  0
BLOCK_RECORD
  5
485
330
1
100
AcDbSymbolTableRecord
100
AcDbBlockTableRecord
  2
*D20
340
0
  0
BLOCK_RECORD
  5
492
330
1
100
AcDbSymbolTableRecord
100
AcDbBlockTableRecord
  2
*D21
340
0
  0
BLOCK_RECORD
  5
49E
330
1
100
AcDbSymbolTableRecord
100
AcDbBlockTableRecord
  2
*D22
340
0
  0
BLOCK_RECORD
  5
4D6
330
1
100
AcDbSymbolTableRecord
100
AcDbBlockTableRecord
  2
*D23
340
0
  0
BLOCK_RECORD
  5
4F6
330
1
100
AcDbSymbolTableRecord
100
AcDbBlockTableRecord
  2
*D24
340
0
  0
ENDTAB
  0
ENDSEC
  0
SECTION
  2
BLOCKS
  0
BLOCK
  5
20
330
1F
100
AcDbEntity
  8
0
100
AcDbBlockBegin
  2
*Model_Space
 70
     0
 10
0.0
 20
0.0
 30
0.0
  3
*Model_Space
  1

  0
ENDBLK
  5
21
330
1F
100
AcDbEntity
  8
0
100
AcDbBlockEnd
  0
BLOCK
  5
D4
330
D2
100
AcDbEntity
 67
     1
  8
0
100
AcDbBlockBegin
  2
*Paper_Space
 70
     0
 10
0.0
 20
0.0
 30
0.0
  3
*Paper_Space
  1

  0
ENDBLK
  5
D5
330
D2
100
AcDbEntity
 67
     1
  8
0
100
AcDbBlockEnd
  0
BLOCK
  5
D8
330
D6
100
AcDbEntity
 67
     1
  8
0
100
AcDbBlockBegin
  2
*Paper_Space0
 70
     0
 10
0.0
 20
0.0
 30
0.0
  3
*Paper_Space0
  1

  0
ENDBLK
  5
D9
330
D6
100
AcDbEntity
 67
     1
  8
0
100
AcDbBlockEnd
  0
BLOCK
  5
117
330
116
100
AcDbEntity
  8
0
100
AcDbBlockBegin
  2
_Open30
 70
     0
 10
0.0
 20
0.0
 30
0.0
  3
_Open30
  1

  0
LINE
  5
118
330
116
100
AcDbEntity
  8
0
  6
ByBlock
 62
     0
370
    -2
100
AcDbLine
 10
-1.0
 20
0.26794919
 30
0.0
 11
0.0
 21
0.0
 31
0.0
  0
LINE
  5
119
330
116
100
AcDbEntity
  8
0
  6
ByBlock
 62
     0
370
    -2
100
AcDbLine
 10
0.0
 20
0.0
 30
0.0
 11
-1.0
 21
-0.26794919
 31
0.0
  0
LINE
  5
11A
330
116
100
AcDbEntity
  8
0
  6
ByBlock
 62
     0
370
    -2
100
AcDbLine
 10
0.0
 20
0.0
 30
0.0
 11
-1.0
 21
0.0
 31
0.0
  0
ENDBLK
  5
11B
330
116
100
AcDbEntity
  8
0
100
AcDbBlockEnd
  0
BLOCK
  5
11D
330
11C
100
AcDbEntity
  8
0
100
AcDbBlockBegin
  2
*D2
 70
     1
 10
0.0
 20
0.0
 30
0.0
  3
*D2
  1

  0
LINE
  5
11E
330
11C
100
AcDbEntity
  8
0
 62
     0
370
     9
100
AcDbLine
 10
11415.42754517483
 20
6486.944536791805
 30
0.0000000000002274
 11
11307.18053828239
 21
6486.944536791805
 31
0.0000000000002274
  0
LINE
  5
11F
330
11C
100
AcDbEntity
  8
0
 62
     0
370
     9
100
AcDbLine
 10
11415.42754517483
 20
4625.944536791805
 30
0.0000000000002274
 11
11307.18053828239
 21
4625.944536791805
 31
0.0000000000002274
  0
LINE
  5
120
330
11C
100
AcDbEntity
  8
0
370
     9
100
AcDbLine
 10
11308.18053828239
 20
6461.944536791804
 30
0.0000000000002274
 11
11308.18053828239
 21
4650.944536791805
 31
0.0000000000002274
  0
INSERT
  5
121
330
11C
100
AcDbEntity
  8
0
370
     9
100
AcDbBlockReference
  2
_Open30
 10
11308.18053828239
 20
6486.944536791805
 30
0.0000000000002274
 41
25.0
 42
25.0
 43
25.0
 50
90.0
  0
INSERT
  5
122
330
11C
100
AcDbEntity
  8
0
370
     9
100
AcDbBlockReference
  2
_Open30
 10
11308.18053828239
 20
4625.944536791805
 30
0.0000000000002274
 41
25.0
 42
25.0
 43
25.0
 50
270.0
  0
MTEXT
  5
123
330
11C
100
AcDbEntity
  8
0
370
     9
100
AcDbMText
 10
11275.68053828239
 20
5556.444536791807
 30
0.0000000000002274
 40
35.0
 41
0.0
 71
     5
 72
     1
  1
\A1;1861
  7
\U+6837式 1
 11
0.0000000000000001
 21
1.0
 31
0.0
 73
     1
 44
1.0
1001
ACAD
1000
MTEXTBEGIN
1070
    73
1070
     1
1070
    44
1040
1.0
1070
    74
1070
     0
1000
MTEXTEND
  0
POINT
  5
124
330
11C
100
AcDbEntity
  8
Defpoints
 62
     0
100
AcDbPoint
 10
11420.42754517483
 20
6486.944536791805
 30
1596.430843560878
  0
POINT
  5
125
330
11C
100
AcDbEntity
  8
Defpoints
 62
     0
100
AcDbPoint
 10
11420.42754517483
 20
4625.944536791805
 30
1596.430843560878
  0
POINT
  5
126
330
11C
100
AcDbEntity
  8
Defpoints
 62
     0
100
AcDbPoint
 10
11308.18053828239
 20
4625.944536791805
 30
0.0000000000002274
  0
ENDBLK
  5
127
330
11C
100
AcDbEntity
  8
0
100
AcDbBlockEnd
  0
BLOCK
  5
129
330
128
100
AcDbEntity
  8
0
100
AcDbBlockBegin
  2
*D3
 70
     1
 10
0.0
 20
0.0
 30
0.0
  3
*D3
  1

  0
LINE
  5
12A
330
128
100
AcDbEntity
  8
0
 62
     0
370
     9
100
AcDbLine
 10
11414.53518028373
 20
6476.944536791805
 30
0.0000000000002274
 11
11414.53518028373
 21
6585.817156282328
 31
0.0000000000002274
  0
LINE
  5
12B
330
128
100
AcDbEntity
  8
0
 62
     0
370
     9
100
AcDbLine
 10
11504.53518028373
 20
6476.944536791805
 30
0.0000000000002274
 11
11504.53518028373
 21
6585.817156282328
 31
0.0000000000002274
  0
LINE
  5
12C
330
128
100
AcDbEntity
  8
0
370
     9
100
AcDbLine
 10
11439.53518028373
 20
6584.817156282328
 30
0.0000000000002274
 11
11479.53518028373
 21
6584.817156282328
 31
0.0000000000002274
  0
INSERT
  5
12D
330
128
100
AcDbEntity
  8
0
370
     9
100
AcDbBlockReference
  2
_Open30
 10
11414.53518028373
 20
6584.817156282328
 30
0.0000000000002274
 41
25.0
 42
25.0
 43
25.0
 50
180.0
  0
INSERT
  5
12E
330
128
100
AcDbEntity
  8
0
370
     9
100
AcDbBlockReference
  2
_Open30
 10
11504.53518028373
 20
6584.817156282328
 30
0.0000000000002274
 41
25.0
 42
25.0
 43
25.0
  0
MTEXT
  5
12F
330
128
100
AcDbEntity
  8
0
370
     9
100
AcDbMText
 10
11459.53518028373
 20
6617.317156282329
 30
0.0000000000002274
 40
35.0
 41
0.0
 71
     5
 72
     1
  1
\A1;90
  7
\U+6837式 1
 73
     1
 44
1.0
1001
ACAD
1000
MTEXTBEGIN
1070
    73
1070
     1
1070
    44
1040
1.0
1070
    74
1070
     0
1000
MTEXTEND
  0
POINT
  5
130
330
128
100
AcDbEntity
  8
Defpoints
 62
     0
100
AcDbPoint
 10
11414.53518028373
 20
6471.944536791806
 30
1596.430843560878
  0
POINT
  5
131
330
128
100
AcDbEntity
  8
Defpoints
 62
     0
100
AcDbPoint
 10
11504.53518028373
 20
6471.944536791806
 30
1596.430843560878
  0
POINT
  5
132
330
128
100
AcDbEntity
  8
Defpoints
 62
     0
100
AcDbPoint
 10
11504.53518028373
 20
6584.817156282328
 30
0.0000000000002274
  0
ENDBLK
  5
133
330
128
100
AcDbEntity
  8
0
100
AcDbBlockEnd
  0
BLOCK
  5
135
330
134
100
AcDbEntity
  8
0
100
AcDbBlockBegin
  2
*D4
 70
     1
 10
0.0
 20
0.0
 30
0.0
  3
*D4
  1

  0
LINE
  5
136
330
134
100
AcDbEntity
  8
0
 62
     0
370
     9
100
AcDbLine
 10
11429.53518028373
 20
6885.509087609567
 30
0.0000000000002274
 11
11307.18053828239
 21
6885.509087609567
 31
0.0000000000002274
  0
LINE
  5
137
330
134
100
AcDbEntity
  8
0
 62
     0
370
     9
100
AcDbLine
 10
11454.53518864728
 20
6788.08908760957
 30
0.0000000000002274
 11
11307.18053828239
 21
6788.08908760957
 31
0.0000000000002274
  0
LINE
  5
138
330
134
100
AcDbEntity
  8
0
370
     9
100
AcDbLine
 10
11308.18053828239
 20
6813.08908760957
 30
0.0000000000002274
 11
11308.18053828239
 21
6860.509087609568
 31
0.0000000000002274
  0
LINE
  5
139
330
134
100
AcDbEntity
  8
0
370
     9
100
AcDbLine
 10
11308.18053828239
 20
6885.509087609567
 30
0.0000000000002274
 11
11308.18053828239
 21
7022.838633064115
 31
0.0000000000002274
  0
INSERT
  5
13A
330
134
100
AcDbEntity
  8
0
370
     9
100
AcDbBlockReference
  2
_Open30
 10
11308.18053828239
 20
6788.08908760957
 30
0.0000000000002274
 41
25.0
 42
25.0
 43
25.0
 50
270.0
  0
INSERT
  5
13B
330
134
100
AcDbEntity
  8
0
370
     9
100
AcDbBlockReference
  2
_Open30
 10
11308.18053828239
 20
6885.509087609567
 30
0.0000000000002274
 41
25.0
 42
25.0
 43
25.0
 50
90.0
  0
MTEXT
  5
13C
330
134
100
AcDbEntity
  8
0
370
     9
100
AcDbMText
 10
11275.68053828239
 20
6966.673860336844
 30
0.0000000000002274
 40
35.0
 41
0.0
 71
     5
 72
     1
  1
\A1;97.4
  7
\U+6837式 1
 11
0.0000000000000001
 21
1.0
 31
0.0
 73
     1
 44
1.0
1001
ACAD
1000
MTEXTBEGIN
1070
    73
1070
     1
1070
    44
1040
1.0
1070
    74
1070
     0
1000
MTEXTEND
  0
POINT
  5
13D
330
134
100
AcDbEntity
  8
Defpoints
 62
     0
100
AcDbPoint
 10
11434.53518028373
 20
6885.509087609567
 30
1596.430843560878
  0
POINT
  5
13E
330
134
100
AcDbEntity
  8
Defpoints
 62
     0
100
AcDbPoint
 10
11459.53518864728
 20
6788.08908760957
 30
1596.430843560878
  0
POINT
  5
13F
330
134
100
AcDbEntity
  8
Defpoints
 62
     0
100
AcDbPoint
 10
11308.18053828239
 20
6788.08908760957
 30
0.0000000000002274
  0
ENDBLK
  5
140
330
134
100
AcDbEntity
  8
0
100
AcDbBlockEnd
  0
BLOCK
  5
142
330
141
100
AcDbEntity
  8
0
100
AcDbBlockBegin
  2
*D5
 70
     1
 10
0.0
 20
0.0
 30
0.0
  3
*D5
  1

  0
LINE
  5
143
330
141
100
AcDbEntity
  8
0
370
     9
100
AcDbLine
 10
11625.31267706708
 20
6942.412723815016
 30
0.0000000000002274
 11
11517.97234080937
 21
6871.626060372121
 31
0.0000000000002274
  0
MTEXT
  5
144
330
141
100
AcDbEntity
  8
0
370
     9
100
AcDbMText
 10
11564.18555024947
 20
6941.032533188066
 30
0.0000000000002274
 40
35.0
 41
0.0
 71
     5
 72
     1
  1
\A1;\U+220590
  7
\U+6837式 1
 11
0.8348165789376121
 21
0.5505281823221241
 31
0.0
 73
     1
 44
1.0
1001
ACAD
1000
MTEXTBEGIN
1070
    73
1070
     1
1070
    44
1040
1.0
1070
    74
1070
     0
1000
MTEXTEND
  0
INSERT
  5
145
330
141
100
AcDbEntity
  8
0
370
     9
100
AcDbBlockReference
  2
_Open30
 10
11497.10192633592
 20
6857.862855814068
 30
0.0000000000002274
 41
25.0
 42
25.0
 43
25.0
 50
213.4032560314381
  0
POINT
  5
146
330
141
100
AcDbEntity
  8
Defpoints
 62
     0
100
AcDbPoint
 10
11497.10192633592
 20
6857.862855814068
 30
1596.430843560878
  0
POINT
  5
147
330
141
100
AcDbEntity
  8
Defpoints
 62
     0
100
AcDbPoint
 10
11421.96843423154
 20
6808.315319405078
 30
1596.430843560878
  0
ENDBLK
  5
148
330
141
100
AcDbEntity
  8
0
100
AcDbBlockEnd
  0
BLOCK
  5
14A
330
149
100
AcDbEntity
  8
0
100
AcDbBlockBegin
  2
*D6
 70
     1
 10
0.0
 20
0.0
 30
0.0
  3
*D6
  1

  0
LINE
  5
14B
330
149
100
AcDbEntity
  8
0
 62
     0
370
     9
100
AcDbLine
 10
11929.48001913292
 20
6476.944536791805
 30
0.0000000000002274
 11
11929.48001913292
 21
6586.817156282328
 31
0.0000000000002274
  0
LINE
  5
14C
330
149
100
AcDbEntity
  8
0
 62
     0
370
     9
100
AcDbLine
 10
12026.90001913292
 20
5661.444536671537
 30
0.0000000000002274
 11
12026.90001913292
 21
6586.817156282328
 31
0.0000000000002274
  0
LINE
  5
14D
330
149
100
AcDbEntity
  8
0
370
     9
100
AcDbLine
 10
11954.48001913292
 20
6585.817156282328
 30
0.0000000000002274
 11
12001.90001913292
 21
6585.817156282328
 31
0.0000000000002274
  0
LINE
  5
14E
330
149
100
AcDbEntity
  8
0
370
     9
100
AcDbLine
 10
12026.90001913292
 20
6585.817156282328
 30
0.0000000000002274
 11
12164.22956458747
 21
6585.817156282328
 31
0.0000000000002274
  0
INSERT
  5
14F
330
149
100
AcDbEntity
  8
0
370
     9
100
AcDbBlockReference
  2
_Open30
 10
11929.48001913292
 20
6585.817156282328
 30
0.0000000000002274
 41
25.0
 42
25.0
 43
25.0
 50
180.0
  0
INSERT
  5
150
330
149
100
AcDbEntity
  8
0
370
     9
100
AcDbBlockReference
  2
_Open30
 10
12026.90001913292
 20
6585.817156282328
 30
0.0000000000002274
 41
25.0
 42
25.0
 43
25.0
  0
MTEXT
  5
151
330
149
100
AcDbEntity
  8
0
370
     9
100
AcDbMText
 10
12108.0647918602
 20
6618.317156282327
 30
0.0000000000002274
 40
35.0
 41
0.0
 71
     5
 72
     1
  1
\A1;97.4
  7
\U+6837式 1
 73
     1
 44
1.0
1001
ACAD
1000
MTEXTBEGIN
1070
    73
1070
     1
1070
    44
1040
1.0
1070
    74
1070
     0
1000
MTEXTEND
  0
POINT
  5
152
330
149
100
AcDbEntity
  8
Defpoints
 62
     0
100
AcDbPoint
 10
11929.48001913292
 20
6471.944536791806
 30
1596.430843560878
  0
POINT
  5
153
330
149
100
AcDbEntity
  8
Defpoints
 62
     0
100
AcDbPoint
 10
12026.90001913292
 20
5656.444536671537
 30
1596.430843560878
  0
POINT
  5
154
330
149
100
AcDbEntity
  8
Defpoints
 62
     0
100
AcDbPoint
 10
12026.90001913292
 20
6585.817156282328
 30
0.0000000000002274
  0
ENDBLK
  5
155
330
149
100
AcDbEntity
  8
0
100
AcDbBlockEnd
  0
BLOCK
  5
157
330
156
100
AcDbEntity
  8
0
100
AcDbBlockBegin
  2
*D7
 70
     1
 10
0.0
 20
0.0
 30
0.0
  3
*D7
  1

  0
LINE
  5
158
330
156
100
AcDbEntity
  8
0
 62
     0
370
     9
100
AcDbLine
 10
12026.40001913293
 20
5626.444536671537
 30
0.0000000000002274
 11
12084.58230874179
 21
5626.444536671537
 31
0.0000000000002274
  0
LINE
  5
159
330
156
100
AcDbEntity
  8
0
 62
     0
370
     9
100
AcDbLine
 10
12026.40001913293
 20
5486.444536671537
 30
0.0000000000002274
 11
12084.58230874179
 21
5486.444536671537
 31
0.0000000000002274
  0
LINE
  5
15A
330
156
100
AcDbEntity
  8
0
370
     9
100
AcDbLine
 10
12083.58230874179
 20
5601.444536671537
 30
0.0000000000002274
 11
12083.58230874179
 21
5511.444536671537
 31
0.0000000000002274
  0
INSERT
  5
15B
330
156
100
AcDbEntity
  8
0
370
     9
100
AcDbBlockReference
  2
_Open30
 10
12083.58230874179
 20
5626.444536671537
 30
0.0000000000002274
 41
25.0
 42
25.0
 43
25.0
 50
90.0
  0
INSERT
  5
15C
330
156
100
AcDbEntity
  8
0
370
     9
100
AcDbBlockReference
  2
_Open30
 10
12083.58230874179
 20
5486.444536671537
 30
0.0000000000002274
 41
25.0
 42
25.0
 43
25.0
 50
270.0
  0
MTEXT
  5
15D
330
156
100
AcDbEntity
  8
0
370
     9
100
AcDbMText
 10
12116.08230874179
 20
5556.444536671539
 30
0.0000000000002274
 40
35.0
 41
0.0
 71
     5
 72
     1
  1
\A1;140
  7
\U+6837式 1
 11
0.0000000000000001
 21
1.0
 31
0.0
 73
     1
 44
1.0
1001
ACAD
1000
MTEXTBEGIN
1070
    73
1070
     1
1070
    44
1040
1.0
1070
    74
1070
     0
1000
MTEXTEND
  0
POINT
  5
15E
330
156
100
AcDbEntity
  8
Defpoints
 62
     0
100
AcDbPoint
 10
12021.40001913293
 20
5626.444536671537
 30
1596.430843560878
  0
POINT
  5
15F
330
156
100
AcDbEntity
  8
Defpoints
 62
     0
100
AcDbPoint
 10
12021.40001913293
 20
5486.444536671537
 30
1596.430843560878
  0
POINT
  5
160
330
156
100
AcDbEntity
  8
Defpoints
 62
     0
100
AcDbPoint
 10
12083.58230874179
 20
5486.444536671537
 30
0.0000000000002274
  0
ENDBLK
  5
161
330
156
100
AcDbEntity
  8
0
100
AcDbBlockEnd
  0
BLOCK
  5
163
330
162
100
AcDbEntity
  8
0
100
AcDbBlockBegin
  2
*D8
 70
     1
 10
0.0
 20
0.0
 30
0.0
  3
*D8
  1

  0
LINE
  5
164
330
162
100
AcDbEntity
  8
0
 62
     0
370
     9
100
AcDbLine
 10
12483.37477423651
 20
5661.444536671537
 30
0.0000000000002274
 11
12483.37477423651
 21
5710.103108251161
 31
0.0000000000002274
  0
LINE
  5
165
330
162
100
AcDbEntity
  8
0
 62
     0
370
     9
100
AcDbLine
 10
12533.37477423652
 20
5661.444536671537
 30
0.0000000000002274
 11
12533.37477423652
 21
5710.103108251161
 31
0.0000000000002274
  0
LINE
  5
166
330
162
100
AcDbEntity
  8
0
370
     9
100
AcDbLine
 10
12458.37477423652
 20
5709.103108251162
 30
0.0000000000002274
 11
12433.37477423652
 21
5709.103108251162
 31
0.0000000000002274
  0
LINE
  5
167
330
162
100
AcDbEntity
  8
0
370
     9
100
AcDbLine
 10
12558.37477423652
 20
5709.103108251162
 30
0.0000000000002274
 11
12583.37477423651
 21
5709.103108251162
 31
0.0000000000002274
  0
INSERT
  5
168
330
162
100
AcDbEntity
  8
0
370
     9
100
AcDbBlockReference
  2
_Open30
 10
12483.37477423651
 20
5709.103108251162
 30
0.0000000000002274
 41
25.0
 42
25.0
 43
25.0
  0
INSERT
  5
169
330
162
100
AcDbEntity
  8
0
370
     9
100
AcDbBlockReference
  2
_Open30
 10
12533.37477423652
 20
5709.103108251162
 30
0.0000000000002274
 41
25.0
 42
25.0
 43
25.0
 50
180.0
  0
MTEXT
  5
16A
330
162
100
AcDbEntity
  8
0
370
     9
100
AcDbMText
 10
12508.37477423652
 20
5741.603108251162
 30
0.0000000000002274
 40
35.0
 41
0.0
 71
     5
 72
     1
  1
\A1;50
  7
\U+6837式 1
 73
     1
 44
1.0
1001
ACAD
1000
MTEXTBEGIN
1070
    73
1070
     1
1070
    44
1040
1.0
1070
    74
1070
     0
1000
MTEXTEND
  0
POINT
  5
16B
330
162
100
AcDbEntity
  8
Defpoints
 62
     0
100
AcDbPoint
 10
12483.37477423651
 20
5656.444536671537
 30
1596.430843560878
  0
POINT
  5
16C
330
162
100
AcDbEntity
  8
Defpoints
 62
     0
100
AcDbPoint
 10
12533.37477423652
 20
5656.444536671537
 30
1596.430843560878
  0
POINT
  5
16D
330
162
100
AcDbEntity
  8
Defpoints
 62
     0
100
AcDbPoint
 10
12533.37477423652
 20
5709.103108251162
 30
0.0000000000002274
  0
ENDBLK
  5
16E
330
162
100
AcDbEntity
  8
0
100
AcDbBlockEnd
  0
BLOCK
  5
170
330
16F
100
AcDbEntity
  8
0
100
AcDbBlockBegin
  2
*D9
 70
     1
 10
0.0
 20
0.0
 30
0.0
  3
*D9
  1

  0
LINE
  5
171
330
16F
100
AcDbEntity
  8
0
 62
     0
370
     9
100
AcDbLine
 10
12539.43414977009
 20
5636.444538169426
 30
0.0000000000002274
 11
12604.06468880899
 21
5636.444538169426
 31
0.0000000000002274
  0
LINE
  5
172
330
16F
100
AcDbEntity
  8
0
 62
     0
370
     9
100
AcDbLine
 10
12539.43414977009
 20
5476.444538169422
 30
0.0000000000002274
 11
12604.06468880899
 21
5476.444538169422
 31
0.0000000000002274
  0
LINE
  5
173
330
16F
100
AcDbEntity
  8
0
370
     9
100
AcDbLine
 10
12603.06468880899
 20
5611.444538169426
 30
0.0000000000002274
 11
12603.06468880899
 21
5501.444538169423
 31
0.0000000000002274
  0
INSERT
  5
174
330
16F
100
AcDbEntity
  8
0
370
     9
100
AcDbBlockReference
  2
_Open30
 10
12603.06468880899
 20
5636.444538169426
 30
0.0000000000002274
 41
25.0
 42
25.0
 43
25.0
 50
90.0
  0
INSERT
  5
175
330
16F
100
AcDbEntity
  8
0
370
     9
100
AcDbBlockReference
  2
_Open30
 10
12603.06468880899
 20
5476.444538169422
 30
0.0000000000002274
 41
25.0
 42
25.0
 43
25.0
 50
270.0
  0
MTEXT
  5
176
330
16F
100
AcDbEntity
  8
0
370
     9
100
AcDbMText
 10
12635.56468880899
 20
5556.444538169426
 30
0.0000000000002274
 40
35.0
 41
0.0
 71
     5
 72
     1
  1
\A1;160
  7
\U+6837式 1
 11
0.0000000000000001
 21
1.0
 31
0.0
 73
     1
 44
1.0
1001
ACAD
1000
MTEXTBEGIN
1070
    73
1070
     1
1070
    44
1040
1.0
1070
    74
1070
     0
1000
MTEXTEND
  0
POINT
  5
177
330
16F
100
AcDbEntity
  8
Defpoints
 62
     0
100
AcDbPoint
 10
12534.43414977008
 20
5636.444538169426
 30
1596.430843560878
  0
POINT
  5
178
330
16F
100
AcDbEntity
  8
Defpoints
 62
     0
100
AcDbPoint
 10
12534.43414977008
 20
5476.444538169422
 30
1596.430843560878
  0
POINT
  5
179
330
16F
100
AcDbEntity
  8
Defpoints
 62
     0
100
AcDbPoint
 10
12603.06468880899
 20
5476.444538169422
 30
0.0000000000002274
  0
ENDBLK
  5
17A
330
16F
100
AcDbEntity
  8
0
100
AcDbBlockEnd
  0
BLOCK
  5
17C
330
17B
100
AcDbEntity
  8
0
100
AcDbBlockBegin
  2
*D10
 70
     1
 10
0.0
 20
0.0
 30
0.0
  3
*D10
  1

  0
LINE
  5
17D
330
17B
100
AcDbEntity
  8
0
 62
     0
370
     9
100
AcDbLine
 10
12490.3747757344
 20
5463.385161137964
 30
0.0000000000002274
 11
12490.3747757344
 21
5407.733017490699
 31
0.0000000000002274
  0
LINE
  5
17E
330
17B
100
AcDbEntity
  8
0
 62
     0
370
     9
100
AcDbLine
 10
12526.3747757344
 20
5463.385161137964
 30
0.0000000000002274
 11
12526.3747757344
 21
5407.733017490699
 31
0.0000000000002274
  0
LINE
  5
17F
330
17B
100
AcDbEntity
  8
0
370
     9
100
AcDbLine
 10
12465.3747757344
 20
5408.733017490698
 30
0.0000000000002274
 11
12440.3747757344
 21
5408.733017490698
 31
0.0000000000002274
  0
LINE
  5
180
330
17B
100
AcDbEntity
  8
0
370
     9
100
AcDbLine
 10
12551.3747757344
 20
5408.733017490698
 30
0.0000000000002274
 11
12651.91454846168
 21
5408.733017490698
 31
0.0000000000002274
  0
INSERT
  5
181
330
17B
100
AcDbEntity
  8
0
370
     9
100
AcDbBlockReference
  2
_Open30
 10
12490.3747757344
 20
5408.733017490698
 30
0.0000000000002274
 41
25.0
 42
25.0
 43
25.0
  0
INSERT
  5
182
330
17B
100
AcDbEntity
  8
0
370
     9
100
AcDbBlockReference
  2
_Open30
 10
12526.3747757344
 20
5408.733017490698
 30
0.0000000000002274
 41
25.0
 42
25.0
 43
25.0
 50
180.0
  0
MTEXT
  5
183
330
17B
100
AcDbEntity
  8
0
370
     9
100
AcDbMText
 10
12614.14466209804
 20
5376.233017490698
 30
0.0000000000002274
 40
35.0
 41
0.0
 71
     5
 72
     1
  1
\A1;36
  7
\U+6837式 1
 73
     1
 44
1.0
1001
ACAD
1000
MTEXTBEGIN
1070
    73
1070
     1
1070
    44
1040
1.0
1070
    74
1070
     0
1000
MTEXTEND
  0
POINT
  5
184
330
17B
100
AcDbEntity
  8
Defpoints
 62
     0
100
AcDbPoint
 10
12490.3747757344
 20
5468.385161137963
 30
1596.430843560878
  0
POINT
  5
185
330
17B
100
AcDbEntity
  8
Defpoints
 62
     0
100
AcDbPoint
 10
12526.3747757344
 20
5468.385161137963
 30
1596.430843560878
  0
POINT
  5
186
330
17B
100
AcDbEntity
  8
Defpoints
 62
     0
100
AcDbPoint
 10
12526.3747757344
 20
5408.733017490698
 30
0.0000000000002274
  0
ENDBLK
  5
187
330
17B
100
AcDbEntity
  8
0
100
AcDbBlockEnd
  0
BLOCK
  5
189
330
188
100
AcDbEntity
  8
0
100
AcDbBlockBegin
  2
*D11
 70
     1
 10
0.0
 20
0.0
 30
0.0
  3
*D11
  1

  0
LINE
  5
18A
330
188
100
AcDbEntity
  8
0
 62
     0
370
     9
100
AcDbLine
 10
12026.90001913292
 20
5661.444536671537
 30
0.0
 11
12026.90001913292
 21
5668.602439706166
 31
0.0
  0
LINE
  5
18B
330
188
100
AcDbEntity
  8
0
 62
     0
370
     9
100
AcDbLine
 10
12021.40001763504
 20
5639.503912205107
 30
0.0
 11
12021.40001763504
 21
5668.602439706166
 31
0.0
  0
LINE
  5
18C
330
188
100
AcDbEntity
  8
0
370
     9
100
AcDbLine
 10
11996.40001763504
 20
5667.602439706167
 30
0.0
 11
11971.40001763504
 21
5667.602439706167
 31
0.0
  0
LINE
  5
18D
330
188
100
AcDbEntity
  8
0
370
     9
100
AcDbLine
 10
12051.90001913293
 20
5667.602439706167
 30
0.0
 11
12162.97956458747
 21
5667.602439706167
 31
0.0
  0
INSERT
  5
18E
330
188
100
AcDbEntity
  8
0
370
     9
100
AcDbBlockReference
  2
_Open30
 10
12021.40001763504
 20
5667.602439706167
 30
0.0
 41
25.0
 42
25.0
 43
25.0
  0
INSERT
  5
18F
330
188
100
AcDbEntity
  8
0
370
     9
100
AcDbBlockReference
  2
_Open30
 10
12026.90001913292
 20
5667.602439706167
 30
0.0
 41
25.0
 42
25.0
 43
25.0
 50
180.0
  0
MTEXT
  5
190
330
188
100
AcDbEntity
  8
0
370
     9
100
AcDbMText
 10
12119.9397918602
 20
5700.102439706166
 30
0.0
 40
35.0
 41
0.0
 71
     5
 72
     1
  1
\A1;5.5
  7
\U+6837式 1
 73
     1
 44
1.0
1001
ACAD
1000
MTEXTBEGIN
1070
    73
1070
     1
1070
    44
1040
1.0
1070
    74
1070
     0
1000
MTEXTEND
  0
POINT
  5
191
330
188
100
AcDbEntity
  8
Defpoints
 62
     0
100
AcDbPoint
 10
12026.90001913292
 20
5656.444536671537
 30
1596.430843560878
  0
POINT
  5
192
330
188
100
AcDbEntity
  8
Defpoints
 62
     0
100
AcDbPoint
 10
12021.40001763504
 20
5634.503912205108
 30
-0.0000004391217772
  0
POINT
  5
193
330
188
100
AcDbEntity
  8
Defpoints
 62
     0
100
AcDbPoint
 10
12021.40001763504
 20
5667.602439706167
 30
0.0
  0
ENDBLK
  5
194
330
188
100
AcDbEntity
  8
0
100
AcDbBlockEnd
  0
BLOCK
  5
196
330
195
100
AcDbEntity
  8
0
100
AcDbBlockBegin
  2
*D12
 70
     1
 10
0.0
 20
0.0
 30
0.0
  3
*D12
  1

  0
LINE
  5
197
330
195
100
AcDbEntity
  8
0
 62
     0
370
     9
100
AcDbLine
 10
12478.37477423652
 20
5656.444536671537
 30
0.0
 11
12417.59514350337
 21
5656.444536671537
 31
0.0
  0
LINE
  5
198
330
195
100
AcDbEntity
  8
0
 62
     0
370
     9
100
AcDbLine
 10
12478.37477423652
 20
5456.444536671534
 30
0.0
 11
12417.59514350337
 21
5456.444536671534
 31
0.0
  0
LINE
  5
199
330
195
100
AcDbEntity
  8
0
370
     9
100
AcDbLine
 10
12418.59514350337
 20
5631.444536671537
 30
0.0
 11
12418.59514350337
 21
5481.444536671534
 31
0.0
  0
INSERT
  5
19A
330
195
100
AcDbEntity
  8
0
370
     9
100
AcDbBlockReference
  2
_Open30
 10
12418.59514350337
 20
5656.444536671537
 30
0.0
 41
25.0
 42
25.0
 43
25.0
 50
90.0
  0
INSERT
  5
19B
330
195
100
AcDbEntity
  8
0
370
     9
100
AcDbBlockReference
  2
_Open30
 10
12418.59514350337
 20
5456.444536671534
 30
0.0
 41
25.0
 42
25.0
 43
25.0
 50
270.0
  0
MTEXT
  5
19C
330
195
100
AcDbEntity
  8
0
370
     9
100
AcDbMText
 10
12386.09514350337
 20
5556.444536671538
 30
0.0
 40
35.0
 41
0.0
 71
     5
 72
     1
  1
\A1;200
  7
\U+6837式 1
 11
0.0000000000000001
 21
1.0
 31
0.0
 73
     1
 44
1.0
1001
ACAD
1000
MTEXTBEGIN
1070
    73
1070
     1
1070
    44
1040
1.0
1070
    74
1070
     0
1000
MTEXTEND
  0
POINT
  5
19D
330
195
100
AcDbEntity
  8
Defpoints
 62
     0
100
AcDbPoint
 10
12483.37477423651
 20
5656.444536671537
 30
1596.430843560878
  0
POINT
  5
19E
330
195
100
AcDbEntity
  8
Defpoints
 62
     0
100
AcDbPoint
 10
12483.37477423651
 20
5456.444536671534
 30
-0.0000004391220045
  0
POINT
  5
19F
330
195
100
AcDbEntity
  8
Defpoints
 62
     0
100
AcDbPoint
 10
12418.59514350337
 20
5456.444536671534
 30
0.0
  0
ENDBLK
  5
1A0
330
195
100
AcDbEntity
  8
0
100
AcDbBlockEnd
  0
BLOCK
  5
449
330
43F
100
AcDbEntity
  8
0
100
AcDbBlockBegin
  2
*D14
 70
     1
 10
0.0
 20
0.0
 30
0.0
  3
*D14
  1

  0
LINE
  5
4AB
330
43F
100
AcDbEntity
  8
0
 62
     0
370
     9
100
AcDbLine
 10
2301.230423656352
 20
2490.753677170345
 30
0.0000000000002274
 11
2192.983416763908
 21
2490.753677170345
 31
0.0000000000002274
  0
LINE
  5
4AC
330
43F
100
AcDbEntity
  8
0
 62
     0
370
     9
100
AcDbLine
 10
2301.230423656352
 20
629.7536771703448
 30
0.0000000000002274
 11
2192.983416763907
 21
629.7536771703448
 31
0.0000000000002274
  0
LINE
  5
4AD
330
43F
100
AcDbEntity
  8
0
370
     9
100
AcDbLine
 10
2193.983416763908
 20
2465.753677170345
 30
0.0000000000002274
 11
2193.983416763907
 21
654.7536771703448
 31
0.0000000000002274
  0
INSERT
  5
4AE
330
43F
100
AcDbEntity
  8
0
370
     9
100
AcDbBlockReference
  2
_Open30
 10
2193.983416763908
 20
2490.753677170345
 30
0.0000000000002274
 41
25.0
 42
25.0
 43
25.0
 50
90.0
  0
INSERT
  5
4AF
330
43F
100
AcDbEntity
  8
0
370
     9
100
AcDbBlockReference
  2
_Open30
 10
2193.983416763907
 20
629.7536771703448
 30
0.0000000000002274
 41
25.0
 42
25.0
 43
25.0
 50
270.0
  0
MTEXT
  5
4B0
330
43F
100
AcDbEntity
  8
0
370
     9
100
AcDbMText
 10
2161.483416763907
 20
1560.253677170345
 30
0.0000000000002274
 40
35.0
 41
0.0
 71
     5
 72
     1
  1
\A1;1861
  7
\U+6837式 1
 11
0.0000000000000001
 21
1.0
 31
0.0
 73
     1
 44
1.0
1001
ACAD
1000
MTEXTBEGIN
1070
    73
1070
     1
1070
    44
1040
1.0
1070
    74
1070
     0
1000
MTEXTEND
  0
POINT
  5
4B1
330
43F
100
AcDbEntity
  8
Defpoints
 62
     0
100
AcDbPoint
 10
2306.230423656352
 20
2490.753677170345
 30
1596.430843560878
  0
POINT
  5
4B2
330
43F
100
AcDbEntity
  8
Defpoints
 62
     0
100
AcDbPoint
 10
2306.230423656352
 20
629.7536771703447
 30
1596.430843560878
  0
POINT
  5
4B3
330
43F
100
AcDbEntity
  8
Defpoints
 62
     0
100
AcDbPoint
 10
2193.983416763907
 20
629.7536771703448
 30
0.0000000000002274
  0
ENDBLK
  5
44A
330
43F
100
AcDbEntity
  8
0
100
AcDbBlockEnd
  0
BLOCK
  5
455
330
44B
100
AcDbEntity
  8
0
100
AcDbBlockBegin
  2
*D15
 70
     1
 10
0.0
 20
0.0
 30
0.0
  3
*D15
  1

  0
LINE
  5
4B4
330
44B
100
AcDbEntity
  8
0
 62
     0
370
     9
100
AcDbLine
 10
2300.338058765252
 20
2480.753677170345
 30
0.0000000000002274
 11
2300.338058765252
 21
2589.626296660868
 31
0.0000000000002274
  0
LINE
  5
4B5
330
44B
100
AcDbEntity
  8
0
 62
     0
370
     9
100
AcDbLine
 10
2390.338058765252
 20
2480.753677170345
 30
0.0000000000002274
 11
2390.338058765252
 21
2589.626296660868
 31
0.0000000000002274
  0
LINE
  5
4B6
330
44B
100
AcDbEntity
  8
0
370
     9
100
AcDbLine
 10
2325.338058765252
 20
2588.626296660868
 30
0.0000000000002274
 11
2365.338058765251
 21
2588.626296660868
 31
0.0000000000002274
  0
INSERT
  5
4B7
330
44B
100
AcDbEntity
  8
0
370
     9
100
AcDbBlockReference
  2
_Open30
 10
2300.338058765252
 20
2588.626296660868
 30
0.0000000000002274
 41
25.0
 42
25.0
 43
25.0
 50
180.0
  0
INSERT
  5
4B8
330
44B
100
AcDbEntity
  8
0
370
     9
100
AcDbBlockReference
  2
_Open30
 10
2390.338058765252
 20
2588.626296660868
 30
0.0000000000002274
 41
25.0
 42
25.0
 43
25.0
  0
MTEXT
  5
4B9
330
44B
100
AcDbEntity
  8
0
370
     9
100
AcDbMText
 10
2345.338058765252
 20
2621.126296660868
 30
0.0000000000002274
 40
35.0
 41
0.0
 71
     5
 72
     1
  1
\A1;90
  7
\U+6837式 1
 73
     1
 44
1.0
1001
ACAD
1000
MTEXTBEGIN
1070
    73
1070
     1
1070
    44
1040
1.0
1070
    74
1070
     0
1000
MTEXTEND
  0
POINT
  5
4BA
330
44B
100
AcDbEntity
  8
Defpoints
 62
     0
100
AcDbPoint
 10
2300.338058765252
 20
2475.753677170345
 30
1596.430843560878
  0
POINT
  5
4BB
330
44B
100
AcDbEntity
  8
Defpoints
 62
     0
100
AcDbPoint
 10
2390.338058765252
 20
2475.753677170345
 30
1596.430843560878
  0
POINT
  5
4BC
330
44B
100
AcDbEntity
  8
Defpoints
 62
     0
100
AcDbPoint
 10
2390.338058765252
 20
2588.626296660868
 30
0.0000000000002274
  0
ENDBLK
  5
456
330
44B
100
AcDbEntity
  8
0
100
AcDbBlockEnd
  0
BLOCK
  5
462
330
457
100
AcDbEntity
  8
0
100
AcDbBlockBegin
  2
*D16
 70
     1
 10
0.0
 20
0.0
 30
0.0
  3
*D16
  1

  0
LINE
  5
4BD
330
457
100
AcDbEntity
  8
0
 62
     0
370
     9
100
AcDbLine
 10
2315.338058765251
 20
2889.318227988107
 30
0.0000000000002274
 11
2192.983416763908
 21
2889.318227988107
 31
0.0000000000002274
  0
LINE
  5
4BE
330
457
100
AcDbEntity
  8
0
 62
     0
370
     9
100
AcDbLine
 10
2340.338067128801
 20
2791.898227988111
 30
0.0000000000002274
 11
2192.983416763908
 21
2791.898227988111
 31
0.0000000000002274
  0
LINE
  5
4BF
330
457
100
AcDbEntity
  8
0
370
     9
100
AcDbLine
 10
2193.983416763908
 20
2816.898227988111
 30
0.0000000000002274
 11
2193.983416763908
 21
2864.318227988107
 31
0.0000000000002274
  0
LINE
  5
4C0
330
457
100
AcDbEntity
  8
0
370
     9
100
AcDbLine
 10
2193.983416763908
 20
2889.318227988107
 30
0.0000000000002274
 11
2193.983416763908
 21
3026.647773442658
 31
0.0000000000002274
  0
INSERT
  5
4C1
330
457
100
AcDbEntity
  8
0
370
     9
100
AcDbBlockReference
  2
_Open30
 10
2193.983416763908
 20
2791.898227988111
 30
0.0000000000002274
 41
25.0
 42
25.0
 43
25.0
 50
270.0
  0
INSERT
  5
4C2
330
457
100
AcDbEntity
  8
0
370
     9
100
AcDbBlockReference
  2
_Open30
 10
2193.983416763908
 20
2889.318227988107
 30
0.0000000000002274
 41
25.0
 42
25.0
 43
25.0
 50
90.0
  0
MTEXT
  5
4C3
330
457
100
AcDbEntity
  8
0
370
     9
100
AcDbMText
 10
2161.483416763907
 20
2970.483000715385
 30
0.0000000000002274
 40
35.0
 41
0.0
 71
     5
 72
     1
  1
\A1;97.4
  7
\U+6837式 1
 11
0.0000000000000001
 21
1.0
 31
0.0
 73
     1
 44
1.0
1001
ACAD
1000
MTEXTBEGIN
1070
    73
1070
     1
1070
    44
1040
1.0
1070
    74
1070
     0
1000
MTEXTEND
  0
POINT
  5
4C4
330
457
100
AcDbEntity
  8
Defpoints
 62
     0
100
AcDbPoint
 10
2320.338058765251
 20
2889.318227988107
 30
1596.430843560878
  0
POINT
  5
4C5
330
457
100
AcDbEntity
  8
Defpoints
 62
     0
100
AcDbPoint
 10
2345.338067128801
 20
2791.898227988111
 30
1596.430843560878
  0
POINT
  5
4C6
330
457
100
AcDbEntity
  8
Defpoints
 62
     0
100
AcDbPoint
 10
2193.983416763908
 20
2791.898227988111
 30
0.0000000000002274
  0
ENDBLK
  5
463
330
457
100
AcDbEntity
  8
0
100
AcDbBlockEnd
  0
BLOCK
  5
46A
330
464
100
AcDbEntity
  8
0
100
AcDbBlockBegin
  2
*D17
 70
     1
 10
0.0
 20
0.0
 30
0.0
  3
*D17
  1

  0
LINE
  5
4C7
330
464
100
AcDbEntity
  8
0
370
     9
100
AcDbLine
 10
2511.115555548602
 20
2946.221864193555
 30
0.0000000000002274
 11
2403.775219290885
 21
2875.43520075066
 31
0.0000000000002274
  0
MTEXT
  5
4C8
330
464
100
AcDbEntity
  8
0
370
     9
100
AcDbMText
 10
2449.988428730995
 20
2944.841673566607
 30
0.0000000000002274
 40
35.0
 41
0.0
 71
     5
 72
     1
  1
\A1;\U+220590
  7
\U+6837式 1
 11
0.8348165789376139
 21
0.5505281823221211
 31
0.0
 73
     1
 44
1.0
1001
ACAD
1000
MTEXTBEGIN
1070
    73
1070
     1
1070
    44
1040
1.0
1070
    74
1070
     0
1000
MTEXTEND
  0
INSERT
  5
4C9
330
464
100
AcDbEntity
  8
0
370
     9
100
AcDbBlockReference
  2
_Open30
 10
2382.904804817445
 20
2861.671996192607
 30
0.0000000000002274
 41
25.0
 42
25.0
 43
25.0
 50
213.4032560314378
  0
POINT
  5
4CA
330
464
100
AcDbEntity
  8
Defpoints
 62
     0
100
AcDbPoint
 10
2382.904804817445
 20
2861.671996192607
 30
1596.430843560878
  0
POINT
  5
4CB
330
464
100
AcDbEntity
  8
Defpoints
 62
     0
100
AcDbPoint
 10
2307.771312713063
 20
2812.124459783618
 30
1596.430843560878
  0
ENDBLK
  5
46B
330
464
100
AcDbEntity
  8
0
100
AcDbBlockEnd
  0
BLOCK
  5
477
330
46C
100
AcDbEntity
  8
0
100
AcDbBlockBegin
  2
*D18
 70
     1
 10
0.0
 20
0.0
 30
0.0
  3
*D18
  1

  0
LINE
  5
4CC
330
46C
100
AcDbEntity
  8
0
 62
     0
370
     9
100
AcDbLine
 10
2815.282897614439
 20
2480.753677170345
 30
0.0000000000002274
 11
2815.282897614439
 21
2590.626296660868
 31
0.0000000000002274
  0
LINE
  5
4CD
330
46C
100
AcDbEntity
  8
0
 62
     0
370
     9
100
AcDbLine
 10
2912.702897614444
 20
1665.253677050077
 30
0.0000000000002274
 11
2912.702897614444
 21
2590.626296660868
 31
0.0000000000002274
  0
LINE
  5
4CE
330
46C
100
AcDbEntity
  8
0
370
     9
100
AcDbLine
 10
2840.282897614439
 20
2589.626296660868
 30
0.0000000000002274
 11
2887.702897614444
 21
2589.626296660868
 31
0.0000000000002274
  0
LINE
  5
4CF
330
46C
100
AcDbEntity
  8
0
370
     9
100
AcDbLine
 10
2912.702897614444
 20
2589.626296660868
 30
0.0000000000002274
 11
3050.03244306899
 21
2589.626296660868
 31
0.0000000000002274
  0
INSERT
  5
4D0
330
46C
100
AcDbEntity
  8
0
370
     9
100
AcDbBlockReference
  2
_Open30
 10
2815.282897614439
 20
2589.626296660868
 30
0.0000000000002274
 41
25.0
 42
25.0
 43
25.0
 50
180.0
  0
INSERT
  5
4D1
330
46C
100
AcDbEntity
  8
0
370
     9
100
AcDbBlockReference
  2
_Open30
 10
2912.702897614444
 20
2589.626296660868
 30
0.0000000000002274
 41
25.0
 42
25.0
 43
25.0
  0
MTEXT
  5
4D2
330
46C
100
AcDbEntity
  8
0
370
     9
100
AcDbMText
 10
2993.867670341717
 20
2622.126296660868
 30
0.0000000000002274
 40
35.0
 41
0.0
 71
     5
 72
     1
  1
\A1;97.4
  7
\U+6837式 1
 73
     1
 44
1.0
1001
ACAD
1000
MTEXTBEGIN
1070
    73
1070
     1
1070
    44
1040
1.0
1070
    74
1070
     0
1000
MTEXTEND
  0
POINT
  5
4D3
330
46C
100
AcDbEntity
  8
Defpoints
 62
     0
100
AcDbPoint
 10
2815.282897614439
 20
2475.753677170345
 30
1596.430843560878
  0
POINT
  5
4D4
330
46C
100
AcDbEntity
  8
Defpoints
 62
     0
100
AcDbPoint
 10
2912.702897614444
 20
1660.253677050077
 30
1596.430843560878
  0
POINT
  5
4D5
330
46C
100
AcDbEntity
  8
Defpoints
 62
     0
100
AcDbPoint
 10
2912.702897614444
 20
2589.626296660868
 30
0.0000000000002274
  0
ENDBLK
  5
478
330
46C
100
AcDbEntity
  8
0
100
AcDbBlockEnd
  0
BLOCK
  5
483
330
479
100
AcDbEntity
  8
0
100
AcDbBlockBegin
  2
*D19
 70
     1
 10
0.0
 20
0.0
 30
0.0
  3
*D19
  1

  0
LINE
  5
4E3
330
479
100
AcDbEntity
  8
0
 62
     0
370
     9
100
AcDbLine
 10
2912.202897614444
 20
1630.253677050077
 30
0.0000000000002274
 11
2970.385187223308
 21
1630.253677050077
 31
0.0000000000002274
  0
LINE
  5
4E4
330
479
100
AcDbEntity
  8
0
 62
     0
370
     9
100
AcDbLine
 10
2912.202897614444
 20
1490.253677050077
 30
0.0000000000002274
 11
2970.385187223308
 21
1490.253677050077
 31
0.0000000000002274
  0
LINE
  5
4E5
330
479
100
AcDbEntity
  8
0
370
     9
100
AcDbLine
 10
2969.385187223308
 20
1605.253677050077
 30
0.0000000000002274
 11
2969.385187223308
 21
1515.253677050077
 31
0.0000000000002274
  0
INSERT
  5
4E6
330
479
100
AcDbEntity
  8
0
370
     9
100
AcDbBlockReference
  2
_Open30
 10
2969.385187223308
 20
1630.253677050077
 30
0.0000000000002274
 41
25.0
 42
25.0
 43
25.0
 50
90.0
  0
INSERT
  5
4E7
330
479
100
AcDbEntity
  8
0
370
     9
100
AcDbBlockReference
  2
_Open30
 10
2969.385187223308
 20
1490.253677050077
 30
0.0000000000002274
 41
25.0
 42
25.0
 43
25.0
 50
270.0
  0
MTEXT
  5
4E8
330
479
100
AcDbEntity
  8
0
370
     9
100
AcDbMText
 10
3001.885187223307
 20
1560.253677050077
 30
0.0000000000002274
 40
35.0
 41
0.0
 71
     5
 72
     1
  1
\A1;140
  7
\U+6837式 1
 11
0.0000000000000001
 21
1.0
 31
0.0
 73
     1
 44
1.0
1001
ACAD
1000
MTEXTBEGIN
1070
    73
1070
     1
1070
    44
1040
1.0
1070
    74
1070
     0
1000
MTEXTEND
  0
POINT
  5
4E9
330
479
100
AcDbEntity
  8
Defpoints
 62
     0
100
AcDbPoint
 10
2907.202897614445
 20
1630.253677050077
 30
1596.430843560878
  0
POINT
  5
4EA
330
479
100
AcDbEntity
  8
Defpoints
 62
     0
100
AcDbPoint
 10
2907.202897614445
 20
1490.253677050077
 30
1596.430843560878
  0
POINT
  5
4EB
330
479
100
AcDbEntity
  8
Defpoints
 62
     0
100
AcDbPoint
 10
2969.385187223308
 20
1490.253677050077
 30
0.0000000000002274
  0
ENDBLK
  5
484
330
479
100
AcDbEntity
  8
0
100
AcDbBlockEnd
  0
BLOCK
  5
490
330
485
100
AcDbEntity
  8
0
100
AcDbBlockBegin
  2
*D20
 70
     1
 10
0.0
 20
0.0
 30
0.0
  3
*D20
  1

  0
LINE
  5
4EC
330
485
100
AcDbEntity
  8
0
 62
     0
370
     9
100
AcDbLine
 10
3369.177652718035
 20
1665.253677050077
 30
0.0000000000002274
 11
3369.177652718035
 21
1713.912248629701
 31
0.0000000000002274
  0
LINE
  5
4ED
330
485
100
AcDbEntity
  8
0
 62
     0
370
     9
100
AcDbLine
 10
3419.177652718035
 20
1665.253677050077
 30
0.0000000000002274
 11
3419.177652718035
 21
1713.912248629701
 31
0.0000000000002274
  0
LINE
  5
4EE
330
485
100
AcDbEntity
  8
0
370
     9
100
AcDbLine
 10
3344.177652718035
 20
1712.912248629701
 30
0.0000000000002274
 11
3319.177652718035
 21
1712.912248629701
 31
0.0000000000002274
  0
LINE
  5
4EF
330
485
100
AcDbEntity
  8
0
370
     9
100
AcDbLine
 10
3444.177652718035
 20
1712.912248629701
 30
0.0000000000002274
 11
3469.177652718035
 21
1712.912248629701
 31
0.0000000000002274
  0
INSERT
  5
4F0
330
485
100
AcDbEntity
  8
0
370
     9
100
AcDbBlockReference
  2
_Open30
 10
3369.177652718035
 20
1712.912248629701
 30
0.0000000000002274
 41
25.0
 42
25.0
 43
25.0
  0
INSERT
  5
4F1
330
485
100
AcDbEntity
  8
0
370
     9
100
AcDbBlockReference
  2
_Open30
 10
3419.177652718035
 20
1712.912248629701
 30
0.0000000000002274
 41
25.0
 42
25.0
 43
25.0
 50
180.0
  0
MTEXT
  5
4F2
330
485
100
AcDbEntity
  8
0
370
     9
100
AcDbMText
 10
3394.177652718035
 20
1745.412248629701
 30
0.0000000000002274
 40
35.0
 41
0.0
 71
     5
 72
     1
  1
\A1;50
  7
\U+6837式 1
 73
     1
 44
1.0
1001
ACAD
1000
MTEXTBEGIN
1070
    73
1070
     1
1070
    44
1040
1.0
1070
    74
1070
     0
1000
MTEXTEND
  0
POINT
  5
4F3
330
485
100
AcDbEntity
  8
Defpoints
 62
     0
100
AcDbPoint
 10
3369.177652718035
 20
1660.253677050077
 30
1596.430843560878
  0
POINT
  5
4F4
330
485
100
AcDbEntity
  8
Defpoints
 62
     0
100
AcDbPoint
 10
3419.177652718035
 20
1660.253677050077
 30
1596.430843560878
  0
POINT
  5
4F5
330
485
100
AcDbEntity
  8
Defpoints
 62
     0
100
AcDbPoint
 10
3419.177652718035
 20
1712.912248629701
 30
0.0000000000002274
  0
ENDBLK
  5
491
330
485
100
AcDbEntity
  8
0
100
AcDbBlockEnd
  0
BLOCK
  5
49C
330
492
100
AcDbEntity
  8
0
100
AcDbBlockBegin
  2
*D21
 70
     1
 10
0.0
 20
0.0
 30
0.0
  3
*D21
  1

  0
LINE
  5
502
330
492
100
AcDbEntity
  8
0
 62
     0
370
     9
100
AcDbLine
 10
3425.237028251603
 20
1640.253678547965
 30
0.0000000000002274
 11
3489.86756729051
 21
1640.253678547965
 31
0.0000000000002274
  0
LINE
  5
503
330
492
100
AcDbEntity
  8
0
 62
     0
370
     9
100
AcDbLine
 10
3425.237028251603
 20
1480.253678547962
 30
0.0000000000002274
 11
3489.86756729051
 21
1480.253678547962
 31
0.0000000000002274
  0
LINE
  5
504
330
492
100
AcDbEntity
  8
0
370
     9
100
AcDbLine
 10
3488.86756729051
 20
1615.253678547966
 30
0.0000000000002274
 11
3488.86756729051
 21
1505.253678547962
 31
0.0000000000002274
  0
INSERT
  5
505
330
492
100
AcDbEntity
  8
0
370
     9
100
AcDbBlockReference
  2
_Open30
 10
3488.86756729051
 20
1640.253678547965
 30
0.0000000000002274
 41
25.0
 42
25.0
 43
25.0
 50
90.0
  0
INSERT
  5
506
330
492
100
AcDbEntity
  8
0
370
     9
100
AcDbBlockReference
  2
_Open30
 10
3488.86756729051
 20
1480.253678547962
 30
0.0000000000002274
 41
25.0
 42
25.0
 43
25.0
 50
270.0
  0
MTEXT
  5
507
330
492
100
AcDbEntity
  8
0
370
     9
100
AcDbMText
 10
3521.367567290509
 20
1560.253678547964
 30
0.0000000000002274
 40
35.0
 41
0.0
 71
     5
 72
     1
  1
\A1;160
  7
\U+6837式 1
 11
0.0000000000000001
 21
1.0
 31
0.0
 73
     1
 44
1.0
1001
ACAD
1000
MTEXTBEGIN
1070
    73
1070
     1
1070
    44
1040
1.0
1070
    74
1070
     0
1000
MTEXTEND
  0
POINT
  5
508
330
492
100
AcDbEntity
  8
Defpoints
 62
     0
100
AcDbPoint
 10
3420.237028251604
 20
1640.253678547965
 30
1596.430843560878
  0
POINT
  5
509
330
492
100
AcDbEntity
  8
Defpoints
 62
     0
100
AcDbPoint
 10
3420.237028251604
 20
1480.253678547962
 30
1596.430843560878
  0
POINT
  5
50A
330
492
100
AcDbEntity
  8
Defpoints
 62
     0
100
AcDbPoint
 10
3488.86756729051
 20
1480.253678547962
 30
0.0000000000002274
  0
ENDBLK
  5
49D
330
492
100
AcDbEntity
  8
0
100
AcDbBlockEnd
  0
BLOCK
  5
4A9
330
49E
100
AcDbEntity
  8
0
100
AcDbBlockBegin
  2
*D22
 70
     1
 10
0.0
 20
0.0
 30
0.0
  3
*D22
  1

  0
LINE
  5
50B
330
49E
100
AcDbEntity
  8
0
 62
     0
370
     9
100
AcDbLine
 10
3376.177654215922
 20
1467.194301516503
 30
0.0000000000002274
 11
3376.177654215922
 21
1411.542157869238
 31
0.0000000000002274
  0
LINE
  5
50C
330
49E
100
AcDbEntity
  8
0
 62
     0
370
     9
100
AcDbLine
 10
3412.177654215922
 20
1467.194301516503
 30
0.0000000000002274
 11
3412.177654215922
 21
1411.542157869238
 31
0.0000000000002274
  0
LINE
  5
50D
330
49E
100
AcDbEntity
  8
0
370
     9
100
AcDbLine
 10
3351.177654215922
 20
1412.542157869238
 30
0.0000000000002274
 11
3326.177654215922
 21
1412.542157869238
 31
0.0000000000002274
  0
LINE
  5
50E
330
49E
100
AcDbEntity
  8
0
370
     9
100
AcDbLine
 10
3437.177654215922
 20
1412.542157869238
 30
0.0000000000002274
 11
3537.717426943195
 21
1412.542157869238
 31
0.0000000000002274
  0
INSERT
  5
50F
330
49E
100
AcDbEntity
  8
0
370
     9
100
AcDbBlockReference
  2
_Open30
 10
3376.177654215922
 20
1412.542157869238
 30
0.0000000000002274
 41
25.0
 42
25.0
 43
25.0
  0
INSERT
  5
510
330
49E
100
AcDbEntity
  8
0
370
     9
100
AcDbBlockReference
  2
_Open30
 10
3412.177654215922
 20
1412.542157869238
 30
0.0000000000002274
 41
25.0
 42
25.0
 43
25.0
 50
180.0
  0
MTEXT
  5
511
330
49E
100
AcDbEntity
  8
0
370
     9
100
AcDbMText
 10
3499.947540579559
 20
1380.042157869238
 30
0.0000000000002274
 40
35.0
 41
0.0
 71
     5
 72
     1
  1
\A1;36
  7
\U+6837式 1
 73
     1
 44
1.0
1001
ACAD
1000
MTEXTBEGIN
1070
    73
1070
     1
1070
    44
1040
1.0
1070
    74
1070
     0
1000
MTEXTEND
  0
POINT
  5
512
330
49E
100
AcDbEntity
  8
Defpoints
 62
     0
100
AcDbPoint
 10
3376.177654215922
 20
1472.194301516503
 30
1596.430843560878
  0
POINT
  5
513
330
49E
100
AcDbEntity
  8
Defpoints
 62
     0
100
AcDbPoint
 10
3412.177654215922
 20
1472.194301516503
 30
1596.430843560878
  0
POINT
  5
514
330
49E
100
AcDbEntity
  8
Defpoints
 62
     0
100
AcDbPoint
 10
3412.177654215922
 20
1412.542157869238
 30
0.0000000000002274
  0
ENDBLK
  5
4AA
330
49E
100
AcDbEntity
  8
0
100
AcDbBlockEnd
  0
BLOCK
  5
4E1
330
4D6
100
AcDbEntity
  8
0
100
AcDbBlockBegin
  2
*D23
 70
     1
 10
0.0
 20
0.0
 30
0.0
  3
*D23
  1

  0
LINE
  5
4D7
330
4D6
100
AcDbEntity
  8
0
 62
     0
370
     9
100
AcDbLine
 10
2912.702897614444
 20
1665.253677050077
 30
0.0
 11
2912.702897614444
 21
1672.411580084706
 31
0.0
  0
LINE
  5
4D8
330
4D6
100
AcDbEntity
  8
0
 62
     0
370
     9
100
AcDbLine
 10
2907.202896116558
 20
1643.313052583647
 30
0.0
 11
2907.202896116558
 21
1672.411580084706
 31
0.0
  0
LINE
  5
4D9
330
4D6
100
AcDbEntity
  8
0
370
     9
100
AcDbLine
 10
2882.202896116558
 20
1671.411580084706
 30
0.0
 11
2857.202896116558
 21
1671.411580084706
 31
0.0
  0
LINE
  5
4DA
330
4D6
100
AcDbEntity
  8
0
370
     9
100
AcDbLine
 10
2937.702897614445
 20
1671.411580084706
 30
0.0
 11
3048.78244306899
 21
1671.411580084706
 31
0.0
  0
INSERT
  5
4DB
330
4D6
100
AcDbEntity
  8
0
370
     9
100
AcDbBlockReference
  2
_Open30
 10
2907.202896116558
 20
1671.411580084706
 30
0.0
 41
25.0
 42
25.0
 43
25.0
  0
INSERT
  5
4DC
330
4D6
100
AcDbEntity
  8
0
370
     9
100
AcDbBlockReference
  2
_Open30
 10
2912.702897614444
 20
1671.411580084706
 30
0.0
 41
25.0
 42
25.0
 43
25.0
 50
180.0
  0
MTEXT
  5
4DD
330
4D6
100
AcDbEntity
  8
0
370
     9
100
AcDbMText
 10
3005.742670341717
 20
1703.911580084706
 30
0.0
 40
35.0
 41
0.0
 71
     5
 72
     1
  1
\A1;5.5
  7
\U+6837式 1
 73
     1
 44
1.0
1001
ACAD
1000
MTEXTBEGIN
1070
    73
1070
     1
1070
    44
1040
1.0
1070
    74
1070
     0
1000
MTEXTEND
  0
POINT
  5
4DE
330
4D6
100
AcDbEntity
  8
Defpoints
 62
     0
100
AcDbPoint
 10
2912.702897614444
 20
1660.253677050077
 30
1596.430843560878
  0
POINT
  5
4DF
330
4D6
100
AcDbEntity
  8
Defpoints
 62
     0
100
AcDbPoint
 10
2907.202896116558
 20
1638.313052583647
 30
-0.0000004391217772
  0
POINT
  5
4E0
330
4D6
100
AcDbEntity
  8
Defpoints
 62
     0
100
AcDbPoint
 10
2907.202896116558
 20
1671.411580084706
 30
0.0
  0
ENDBLK
  5
4E2
330
4D6
100
AcDbEntity
  8
0
100
AcDbBlockEnd
  0
BLOCK
  5
500
330
4F6
100
AcDbEntity
  8
0
100
AcDbBlockBegin
  2
*D24
 70
     1
 10
0.0
 20
0.0
 30
0.0
  3
*D24
  1

  0
LINE
  5
4F7
330
4F6
100
AcDbEntity
  8
0
 62
     0
370
     9
100
AcDbLine
 10
3364.177652718035
 20
1660.253677050077
 30
0.0
 11
3303.398021984891
 21
1660.253677050077
 31
0.0
  0
LINE
  5
4F8
330
4F6
100
AcDbEntity
  8
0
 62
     0
370
     9
100
AcDbLine
 10
3364.177652718035
 20
1460.253677050073
 30
0.0
 11
3303.398021984891
 21
1460.253677050073
 31
0.0
  0
LINE
  5
4F9
330
4F6
100
AcDbEntity
  8
0
370
     9
100
AcDbLine
 10
3304.398021984891
 20
1635.253677050077
 30
0.0
 11
3304.398021984891
 21
1485.253677050073
 31
0.0
  0
INSERT
  5
4FA
330
4F6
100
AcDbEntity
  8
0
370
     9
100
AcDbBlockReference
  2
_Open30
 10
3304.398021984891
 20
1660.253677050077
 30
0.0
 41
25.0
 42
25.0
 43
25.0
 50
90.0
  0
INSERT
  5
4FB
330
4F6
100
AcDbEntity
  8
0
370
     9
100
AcDbBlockReference
  2
_Open30
 10
3304.398021984891
 20
1460.253677050073
 30
0.0
 41
25.0
 42
25.0
 43
25.0
 50
270.0
  0
MTEXT
  5
4FC
330
4F6
100
AcDbEntity
  8
0
370
     9
100
AcDbMText
 10
3271.89802198489
 20
1560.253677050075
 30
0.0
 40
35.0
 41
0.0
 71
     5
 72
     1
  1
\A1;200
  7
\U+6837式 1
 11
0.0000000000000001
 21
1.0
 31
0.0
 73
     1
 44
1.0
1001
ACAD
1000
MTEXTBEGIN
1070
    73
1070
     1
1070
    44
1040
1.0
1070
    74
1070
     0
1000
MTEXTEND
  0
POINT
  5
4FD
330
4F6
100
AcDbEntity
  8
Defpoints
 62
     0
100
AcDbPoint
 10
3369.177652718035
 20
1660.253677050077
 30
1596.430843560878
  0
POINT
  5
4FE
330
4F6
100
AcDbEntity
  8
Defpoints
 62
     0
100
AcDbPoint
 10
3369.177652718035
 20
1460.253677050073
 30
-0.0000004391220045
  0
POINT
  5
4FF
330
4F6
100
AcDbEntity
  8
Defpoints
 62
     0
100
AcDbPoint
 10
3304.398021984891
 20
1460.253677050073
 30
0.0
  0
ENDBLK
  5
501
330
4F6
100
AcDbEntity
  8
0
100
AcDbBlockEnd
  0
ENDSEC
  0
SECTION
  2
ENTITIES
  0
ELLIPSE
  5
2F8
330
1F
100
AcDbEntity
  8
0
  6
Continuous
370
    13
100
AcDbEllipse
 10
4028.8111142444
 20
2855.561063109833
 30
-0.0000004391239729
 11
-56.25
 21
-0.0000000000000016
 31
0.0000000000000062
210
0.0000000000000001
220
0.0000000000000002
230
1.0
 40
0.2898359481293595
 41
0.8490534587051316
 42
3.141592653589781
  0
LINE
  5
2F9
330
1F
100
AcDbEntity
  8
0
  6
Continuous
370
    -3
100
AcDbLine
 10
4381.678232607665
 20
89.25011864492478
 30
0.0
 11
4381.678232607665
 21
3113.701793029848
 31
0.0
  0
LINE
  5
2FA
330
1F
100
AcDbEntity
  8
0
  6
Continuous
370
    -3
100
AcDbLine
 10
104.675864790593
 20
3113.701793029848
 30
0.0
 11
104.675864790593
 21
89.25011864492478
 31
0.0
  0
LINE
  5
2FB
330
1F
100
AcDbEntity
  8
0
  6
Continuous
370
    -3
100
AcDbLine
 10
4381.678232607665
 20
3113.701793029848
 30
0.0
 11
104.675864790593
 21
3113.701793029848
 31
0.0
  0
LINE
  5
2FC
330
1F
100
AcDbEntity
  8
0
  6
Continuous
370
    -3
100
AcDbLine
 10
104.675864790593
 20
89.25011864492478
 30
0.0
 11
4381.678232607665
 21
89.25011864492478
 31
0.0
  0
LINE
  5
2FD
330
1F
100
AcDbEntity
  8
0
370
    -3
100
AcDbLine
 10
104.675864790593
 20
392.5057317497225
 30
0.0
 11
4381.678232607665
 21
392.5057317497225
 31
0.0
  0
LINE
  5
2FE
330
1F
100
AcDbEntity
  8
0
370
    15
100
AcDbLine
 10
3301.94898485064
 20
392.5057317497225
 30
0.0
 11
3301.94898485064
 21
174.3786109907154
 31
0.0
  0
LINE
  5
2FF
330
1F
100
AcDbEntity
  8
0
370
    -3
100
AcDbLine
 10
1731.734632336066
 20
392.5057317497225
 30
0.0
 11
1731.734632336066
 21
174.3786109907154
 31
0.0
  0
LINE
  5
300
330
1F
100
AcDbEntity
  8
0
370
    15
100
AcDbLine
 10
3301.94898485064
 20
392.5057317497225
 30
0.0
 11
3301.94898485064
 21
283.4421713702226
 31
0.0
  0
LINE
  5
301
330
1F
100
AcDbEntity
  8
0
370
    15
100
AcDbLine
 10
3301.94898485064
 20
283.4421713702226
 30
0.0
 11
2803.89205911759
 21
283.4421713702226
 31
0.0
  0
LINE
  5
302
330
1F
100
AcDbEntity
  8
0
370
    -3
100
AcDbLine
 10
2803.89205911759
 20
392.5057317497225
 30
0.0
 11
2803.89205911759
 21
174.3786109907154
 31
0.0
  0
MTEXT
  5
303
330
1F
100
AcDbEntity
  8
0
370
    15
100
AcDbMText
 10
2834.980194525889
 20
386.7244078276575
 30
0.0
 40
29.08361610119977
 41
195.8964469918749
 71
     1
 72
     5
  1
図面番号
  7
\U+6837式 1
 73
     1
 44
1.0
1001
ACAD
1000
MTEXTBEGIN
1070
    73
1070
     1
1070
    44
1040
1.0
1070
    74
1070
     0
1000
MTEXTEND
  0
MTEXT
  5
304
330
1F
100
AcDbEntity
  8
0
370
    15
100
AcDbMText
 10
2834.980194525889
 20
277.6608474481594
 30
0.0
 40
29.08361610119977
 41
103.3207591475945
 71
     1
 72
     5
  1
尺度
  7
\U+6837式 1
 73
     1
 44
1.0
1001
ACAD
1000
MTEXTBEGIN
1070
    73
1070
     1
1070
    44
1040
1.0
1070
    74
1070
     0
1000
MTEXTEND
  0
MTEXT
  5
305
330
1F
100
AcDbEntity
  8
0
370
    15
100
AcDbMText
 10
3333.037120258932
 20
386.7244078276575
 30
0.0
 40
29.08361610119977
 41
195.8964469918749
 71
     1
 72
     5
  1
図名
  7
\U+6837式 1
 73
     1
 44
1.0
1001
ACAD
1000
MTEXTBEGIN
1070
    73
1070
     1
1070
    44
1040
1.0
1070
    74
1070
     0
1000
MTEXTEND
  0
LINE
  5
306
330
1F
100
AcDbEntity
  8
0
370
    15
100
AcDbLine
 10
104.675864790593
 20
337.973951559968
 30
0.0
 11
1731.734632336066
 21
337.973951559968
 31
0.0
  0
LINE
  5
307
330
1F
100
AcDbEntity
  8
0
370
    15
100
AcDbLine
 10
1731.734632336066
 20
283.4421713702226
 30
0.0
 11
104.675864790593
 21
283.4421713702226
 31
0.0
  0
LINE
  5
308
330
1F
100
AcDbEntity
  8
0
370
    15
100
AcDbLine
 10
104.675864790593
 20
228.9103911804699
 30
0.0
 11
1731.734632336066
 21
228.9103911804699
 31
0.0
  0
LINE
  5
309
330
1F
100
AcDbEntity
  8
0
370
    -3
100
AcDbLine
 10
104.675864790593
 20
174.3786109907154
 30
0.0
 11
4381.678232607665
 21
174.3786109907154
 31
0.0
  0
MTEXT
  5
30A
330
1F
100
AcDbEntity
  8
0
370
    15
100
AcDbMText
 10
3065.428877453842
 20
348.5321665770929
 30
0.0
 40
29.08361610119977
 41
673.0894936895942
 71
     1
 72
     5
  1
2014 Ver,1
  7
\U+6837式 1
 73
     1
 44
1.0
1001
ACAD
1000
MTEXTBEGIN
1070
    73
1070
     1
1070
    44
1040
1.0
1070
    74
1070
     0
1000
MTEXTEND
  0
LINE
  5
30B
330
1F
100
AcDbEntity
  8
0
370
    -3
100
AcDbLine
 10
278.0698888762721
 20
2744.389215807207
 30
0.0
 11
1636.961158698051
 21
2744.389215807207
 31
0.0
  0
LINE
  5
30C
330
1F
100
AcDbEntity
  8
0
370
    -3
100
AcDbLine
 10
278.0698888762721
 20
2718.729235392708
 30
0.0
 11
1636.961158698044
 21
2718.729235392711
 31
0.0
  0
MTEXT
  5
30D
330
1F
100
AcDbEntity
  8
0
370
    13
100
AcDbMText
 10
313.6063265052338
 20
2959.463604662591
 30
0.0
 40
54.57046850461988
 41
1615.429338265625
 71
     1
 72
     5
  1
{\H0.6414x;LINEAR SOUND SOURCE Speaker system\PSOUND POLE Series\P}SP-16-R
  7
\U+6837式 1
 73
     1
 44
1.0
1001
ACAD
1000
MTEXTBEGIN
1070
    73
1070
     1
1070
    44
1040
1.0
1070
    74
1070
     0
1000
MTEXTEND
  0
MTEXT
  5
30E
330
1F
100
AcDbEntity
  8
0
370
    13
100
AcDbMText
 10
313.6063265052338
 20
2656.490464494007
 30
0.0
 40
33.33501609973629
 41
1274.281444408585
 71
     1
 72
     5
  1
使用ユニット
  7
\U+6837式 1
 73
     1
 44
1.0
1001
ACAD
1000
MTEXTBEGIN
1070
    73
1070
     1
1070
    44
1040
1.0
1070
    74
1070
     0
1000
MTEXTEND
  0
MTEXT
  5
30F
330
1F
100
AcDbEntity
  8
0
370
    13
100
AcDbMText
 10
806.1724601082326
 20
2659.710324003643
 30
0.0
 40
33.33501609973629
 41
1274.281444408585
 71
     1
 72
     5
  1
：　平面波スピーカユニット 16基実装
  7
\U+6837式 1
 73
     1
 44
1.0
1001
ACAD
1000
MTEXTBEGIN
1070
    73
1070
     1
1070
    44
1040
1.0
1070
    74
1070
     0
1000
MTEXTEND
  0
MTEXT
  5
310
330
1F
100
AcDbEntity
  8
0
370
    13
100
AcDbMText
 10
313.6063265052338
 20
2559.184084018196
 30
0.0
 40
33.33501609973629
 41
1274.281444408585
 71
     1
 72
     5
  1
インピーダンス
  7
\U+6837式 1
 73
     1
 44
1.0
1001
ACAD
1000
MTEXTBEGIN
1070
    73
1070
     1
1070
    44
1040
1.0
1070
    74
1070
     0
1000
MTEXTEND
  0
MTEXT
  5
311
330
1F
100
AcDbEntity
  8
0
370
    13
100
AcDbMText
 10
313.6063265052338
 20
2461.877703542385
 30
0.0
 40
33.33501609973629
 41
1274.281444408585
 71
     1
 72
     5
  1
実効周波数範囲
  7
\U+6837式 1
 73
     1
 44
1.0
1001
ACAD
1000
MTEXTBEGIN
1070
    73
1070
     1
1070
    44
1040
1.0
1070
    74
1070
     0
1000
MTEXTEND
  0
MTEXT
  5
312
330
1F
100
AcDbEntity
  8
0
370
    13
100
AcDbMText
 10
313.6063265052338
 20
2364.571323066573
 30
0.0
 40
33.33501609973629
 41
1274.281444408585
 71
     1
 72
     5
  1
出力音圧レベル
  7
\U+6837式 1
 73
     1
 44
1.0
1001
ACAD
1000
MTEXTBEGIN
1070
    73
1070
     1
1070
    44
1040
1.0
1070
    74
1070
     0
1000
MTEXTEND
  0
MTEXT
  5
313
330
1F
100
AcDbEntity
  8
0
370
    13
100
AcDbMText
 10
313.6063265052338
 20
2267.26494259076
 30
0.0
 40
33.33501609973629
 41
1274.281444408585
 71
     1
 72
     5
  1
耐入力
  7
\U+6837式 1
 73
     1
 44
1.0
1001
ACAD
1000
MTEXTBEGIN
1070
    73
1070
     1
1070
    44
1040
1.0
1070
    74
1070
     0
1000
MTEXTEND
  0
MTEXT
  5
314
330
1F
100
AcDbEntity
  8
0
370
    13
100
AcDbMText
 10
313.6063265052338
 20
2168.632737610986
 30
0.0
 40
33.33501609973629
 41
1274.281444408585
 71
     1
 72
     5
  1
指向特性
  7
\U+6837式 1
 73
     1
 44
1.0
1001
ACAD
1000
MTEXTBEGIN
1070
    73
1070
     1
1070
    44
1040
1.0
1070
    74
1070
     0
1000
MTEXTEND
  0
MTEXT
  5
315
330
1F
100
AcDbEntity
  8
0
370
    13
100
AcDbMText
 10
313.6063265052338
 20
2071.326357135174
 30
0.0
 40
33.33501609973629
 41
1274.281444408585
 71
     1
 72
     5
  1
入力端子
  7
\U+6837式 1
 73
     1
 44
1.0
1001
ACAD
1000
MTEXTBEGIN
1070
    73
1070
     1
1070
    44
1040
1.0
1070
    74
1070
     0
1000
MTEXTEND
  0
MTEXT
  5
316
330
1F
100
AcDbEntity
  8
0
370
    13
100
AcDbMText
 10
313.6063265052338
 20
1974.019976659363
 30
0.0
 40
33.33501609973629
 41
1274.281444408585
 71
     1
 72
     5
  1
キャビネット
  7
\U+6837式 1
 73
     1
 44
1.0
1001
ACAD
1000
MTEXTBEGIN
1070
    73
1070
     1
1070
    44
1040
1.0
1070
    74
1070
     0
1000
MTEXTEND
  0
MTEXT
  5
317
330
1F
100
AcDbEntity
  8
0
370
    13
100
AcDbMText
 10
313.6063265052338
 20
1876.713596183552
 30
0.0
 40
33.33501609973629
 41
1274.281444408585
 71
     1
 72
     5
  1
取付ポイント
  7
\U+6837式 1
 73
     1
 44
1.0
1001
ACAD
1000
MTEXTBEGIN
1070
    73
1070
     1
1070
    44
1040
1.0
1070
    74
1070
     0
1000
MTEXTEND
  0
MTEXT
  5
318
330
1F
100
AcDbEntity
  8
0
370
    13
100
AcDbMText
 10
806.1724601082326
 20
2560.320505021595
 30
0.0
 40
33.33501609973629
 41
1274.281444408585
 71
     1
 72
     5
  1
：　8Ω
  7
\U+6837式 1
 73
     1
 44
1.0
1001
ACAD
1000
MTEXTBEGIN
1070
    73
1070
     1
1070
    44
1040
1.0
1070
    74
1070
     0
1000
MTEXTEND
  0
MTEXT
  5
319
330
1F
100
AcDbEntity
  8
0
370
    13
100
AcDbMText
 10
806.1724601082326
 20
2459.226054534452
 30
0.0
 40
33.33501609973629
 41
1274.281444408585
 71
     1
 72
     5
  1
：　180Hz～10kHz {\H0.6345x;(-10dB)}
  7
\U+6837式 1
 73
     1
 44
1.0
1001
ACAD
1000
MTEXTBEGIN
1070
    73
1070
     1
1070
    44
1040
1.0
1070
    74
1070
     0
1000
MTEXTEND
  0
MTEXT
  5
31A
330
1F
100
AcDbEntity
  8
0
370
    13
100
AcDbMText
 10
806.1724601082291
 20
2362.109077559207
 30
0.0
 40
33.33501609973629
 41
1274.281444408585
 71
     1
 72
     5
  1
：　94dB@1w1m{\H0.6345x;　※1　}
  7
\U+6837式 1
 73
     1
 44
1.0
1001
ACAD
1000
MTEXTBEGIN
1070
    73
1070
     1
1070
    44
1040
1.0
1070
    74
1070
     0
1000
MTEXTEND
  0
MTEXT
  5
31B
330
1F
100
AcDbEntity
  8
0
370
    13
100
AcDbMText
 10
806.1724601082326
 20
2169.011544612118
 30
0.0
 40
33.33501609973629
 41
1274.281444408585
 71
     1
 72
     5
  1
：　水平140°{\H0.5625x;(180Hz\H1.015x;～10kHz\H0.985x;, -6dB)}×垂直0°{\H0.5625x;(スピーカ高さで直進）}
  7
\U+6837式 1
 73
     1
 44
1.0
1001
ACAD
1000
MTEXTBEGIN
1070
    73
1070
     1
1070
    44
1040
1.0
1070
    74
1070
     0
1000
MTEXTEND
  0
MTEXT
  5
31C
330
1F
100
AcDbEntity
  8
0
370
    13
100
AcDbMText
 10
806.1724601082326
 20
2072.083971137439
 30
0.0
 40
33.33501609973629
 41
1274.281444408585
 71
     1
 72
     5
  1
：　4Pスピコン{\H0.6345x;　※2}
  7
\U+6837式 1
 73
     1
 44
1.0
1001
ACAD
1000
MTEXTBEGIN
1070
    73
1070
     1
1070
    44
1040
1.0
1070
    74
1070
     0
1000
MTEXTEND
  0
MTEXT
  5
31D
330
1F
100
AcDbEntity
  8
0
370
    13
100
AcDbMText
 10
806.1724601082326
 20
1976.103415165592
 30
0.0
 40
33.33501609973629
 41
1274.281444408585
 71
     1
 72
     5
  1
：　アルミニウム製 円筒キャビネット
  7
\U+6837式 1
 73
     1
 44
1.0
1001
ACAD
1000
MTEXTBEGIN
1070
    73
1070
     1
1070
    44
1040
1.0
1070
    74
1070
     0
1000
MTEXTEND
  0
MTEXT
  5
31E
330
1F
100
AcDbEntity
  8
0
370
    13
100
AcDbMText
 10
806.1724601082326
 20
1878.418227688651
 30
0.0
 40
33.33501609973629
 41
1274.281444408585
 71
     1
 72
     5
  1
：　【標準】　背面固定プレート×1{\H0.6345x;（M4タップ×8）}
  7
\U+6837式 1
 73
     1
 44
1.0
1001
ACAD
1000
MTEXTBEGIN
1070
    73
1070
     1
1070
    44
1040
1.0
1070
    74
1070
     0
1000
MTEXTEND
  0
MTEXT
  5
31F
330
1F
100
AcDbEntity
  8
0
370
    13
100
AcDbMText
 10
313.6063265052338
 20
1660.737256235328
 30
0.0
 40
33.33501609973629
 41
1274.281444408585
 71
     1
 72
     5
  1
寸法
  7
\U+6837式 1
 73
     1
 44
1.0
1001
ACAD
1000
MTEXTBEGIN
1070
    73
1070
     1
1070
    44
1040
1.0
1070
    74
1070
     0
1000
MTEXTEND
  0
MTEXT
  5
320
330
1F
100
AcDbEntity
  8
0
370
    13
100
AcDbMText
 10
806.1724601082326
 20
1663.578308743828
 30
0.0
 40
33.33501609973629
 41
1274.281444408585
 71
     1
 72
     5
  1
：　φ90mm×1861mm 円筒型{\H0.6345x;（背面固定プレート突起含まず）}
  7
\U+6837式 1
 73
     1
 44
1.0
1001
ACAD
1000
MTEXTBEGIN
1070
    73
1070
     1
1070
    44
1040
1.0
1070
    74
1070
     0
1000
MTEXTEND
  0
MTEXT
  5
321
330
1F
100
AcDbEntity
  8
0
370
    13
100
AcDbMText
 10
313.6063265052338
 20
1565.514314265748
 30
0.0
 40
33.33501609973629
 41
1274.281444408585
 71
     1
 72
     5
  1
重量
  7
\U+6837式 1
 73
     1
 44
1.0
1001
ACAD
1000
MTEXTBEGIN
1070
    73
1070
     1
1070
    44
1040
1.0
1070
    74
1070
     0
1000
MTEXTEND
  0
MTEXT
  5
322
330
1F
100
AcDbEntity
  8
0
370
    13
100
AcDbMText
 10
806.1724601082326
 20
1568.355366774248
 30
0.0
 40
33.33501609973629
 41
1274.281444408585
 71
     1
 72
     5
  1
：　約10kg
  7
\U+6837式 1
 73
     1
 44
1.0
1001
ACAD
1000
MTEXTBEGIN
1070
    73
1070
     1
1070
    44
1040
1.0
1070
    74
1070
     0
1000
MTEXTEND
  0
MTEXT
  5
323
330
1F
100
AcDbEntity
  8
0
370
    13
100
AcDbMText
 10
313.6063265052338
 20
1469.344354793336
 30
0.0
 40
33.33501609973629
 41
1274.281444408585
 71
     1
 72
     5
  1
カラー
  7
\U+6837式 1
 73
     1
 44
1.0
1001
ACAD
1000
MTEXTBEGIN
1070
    73
1070
     1
1070
    44
1040
1.0
1070
    74
1070
     0
1000
MTEXTEND
  0
MTEXT
  5
324
330
1F
100
AcDbEntity
  8
0
370
    13
100
AcDbMText
 10
806.1724601082326
 20
1472.185407301834
 30
0.0
 40
33.33501609973629
 41
1274.281444408585
 71
     1
 72
     5
  1
：　ブラック／ホワイト
  7
\U+6837式 1
 73
     1
 44
1.0
1001
ACAD
1000
MTEXTBEGIN
1070
    73
1070
     1
1070
    44
1040
1.0
1070
    74
1070
     0
1000
MTEXTEND
  0
MTEXT
  5
325
330
1F
100
AcDbEntity
  8
0
370
    13
100
AcDbMText
 10
313.6063265052338
 20
1373.174395320924
 30
0.0
 40
21.15234375
 41
1274.281444408585
 71
     1
 72
     5
  1
※1　・・・　測定距離4m　換算値\P※2　・・・　1±（2±未接続）\P※3　・・・　背面固定プレート増設に関しては、別紙「壁面設置姿図」をご参照下さい。
  7
\U+6837式 1
 73
     1
 44
1.0
1001
ACAD
1000
MTEXTBEGIN
1070
    73
1070
     1
1070
    44
1040
1.0
1070
    74
1070
     0
1000
MTEXTEND
  0
MTEXT
  5
326
330
1F
100
AcDbEntity
  8
0
370
    13
100
AcDbMText
 10
806.1724601082364
 20
2265.370907585093
 30
0.0
 40
33.33501609973629
 41
1274.281444408585
 71
     1
 72
     5
  1
：　128W{\H0.6345x;（定格）}／256W{\H0.6345x;（最大）}
  7
\U+6837式 1
 73
     1
 44
1.0
1001
ACAD
1000
MTEXTBEGIN
1070
    73
1070
     1
1070
    44
1040
1.0
1070
    74
1070
     0
1000
MTEXTEND
  0
MTEXT
  5
327
330
1F
100
AcDbEntity
  8
0
370
    13
100
AcDbMText
 10
167.7375634600479
 20
484.1400925363026
 30
0.0
 40
31.58054156817123
 41
1207.213999966028
 71
     1
 72
     5
  1
※この仕様は予告無く変更される場合があります。
  7
\U+6837式 1
 73
     1
 44
1.0
1001
ACAD
1000
MTEXTBEGIN
1070
    73
1070
     1
1070
    44
1040
1.0
1070
    74
1070
     0
1000
MTEXTEND
  0
MTEXT
  5
328
330
1F
100
AcDbEntity
  8
0
370
    15
100
AcDbMText
 10
3449.550340573578
 20
336.1709865660663
 30
0.0
 40
40.57542533126684
 41
1201.139266143291
 71
     1
 72
     5
  1
SOUND POLE Series\PSP-16-R   仕様図面
  7
\U+6837式 1
 73
     1
 44
1.0
1001
ACAD
1000
MTEXTBEGIN
1070
    73
1070
     1
1070
    44
1040
1.0
1070
    74
1070
     0
1000
MTEXTEND
  0
CIRCLE
  5
329
330
1F
100
AcDbEntity
  8
0
  6
Continuous
370
    13
100
AcDbCircle
 10
2345.338058765252
 20
2836.898227988109
 30
-0.0000004391222319
 40
45.0
  0
CIRCLE
  5
32A
330
1F
100
AcDbEntity
  8
0
  6
Continuous
370
    13
100
AcDbCircle
 10
2345.338058765252
 20
2836.898227988109
 30
-0.0000004391222319
 40
45.0
  0
ARC
  5
32B
330
1F
100
AcDbEntity
  8
0
  6
Continuous
370
    13
100
AcDbCircle
 10
2345.338058765252
 20
2836.898227987927
 30
-0.0000004391222319
 40
45.99999999981995
100
AcDbArc
 50
209.4919063688982
 51
330.508093631101
  0
LINE
  5
32C
330
1F
100
AcDbEntity
  8
0
  6
Continuous
370
    13
100
AcDbLine
 10
2386.324358877756
 20
2816.014664999988
 30
-0.0000004391222319
 11
2385.433352353562
 21
2816.468655499731
 31
-0.0000004391222319
  0
SPLINE
  5
32D
330
1F
100
AcDbEntity
  8
0
  6
Continuous
370
    13
100
AcDbSpline
210
0.0
220
0.0
230
1.0
 70
     8
 71
     3
 72
    22
 73
    18
 74
     0
 42
0.0000000001
 43
0.0000000001
 40
9.047215022640344
 40
9.047215022640344
 40
9.047215022640344
 40
9.047215022640344
 40
9.424051018898769
 40
9.424051018898769
 40
9.800887015157195
 40
9.800887015157195
 40
10.17772301141562
 40
10.17772301141562
 40
10.55455900767404
 40
10.55455900767404
 40
10.93125046339926
 40
10.93125046339926
 40
11.30794191912446
 40
11.30794191912446
 40
11.68463337484968
 40
11.68463337484968
 40
12.06132483057489
 40
12.06132483057489
 40
12.06132483057489
 40
12.06132483057489
 10
2385.377620139001
 20
2814.252400006138
 30
-0.0000004391222319
 10
2385.439459002389
 20
2814.36173586121
 30
-0.0000004391222319
 10
2385.502951525415
 20
2814.47506843639
 30
-0.0000004391222319
 10
2385.628284284584
 20
2814.701056494465
 30
-0.0000004391222319
 10
2385.690126753544
 20
2814.813713093295
 30
-0.0000004391222319
 10
2385.807885015021
 20
2815.03025249004
 30
-0.0000004391222319
 10
2385.86389822823
 20
2815.134306570188
 30
-0.0000004391222319
 10
2385.966836736277
 20
2815.327081976706
 30
-0.0000004391222319
 10
2386.013763799814
 20
2815.415795403336
 30
-0.0000004391222319
 10
2386.096408245693
 20
2815.573012129956
 30
-0.0000004391222319
 10
2386.134946388063
 20
2815.646890320888
 30
-0.0000004391222319
 10
2386.202588002213
 20
2815.777251623447
 30
-0.0000004391222319
 10
2386.231700803766
 20
2815.833740226859
 30
-0.0000004391222319
 10
2386.278333697731
 20
2815.9245184385
 30
-0.0000004391222319
 10
2386.295894279583
 20
2815.958878657169
 30
-0.0000004391222319
 10
2386.318908913921
 20
2816.003956966728
 30
-0.0000004391222319
 10
2386.324358877756
 20
2816.014664999988
 30
-0.0000004391222319
 10
2386.324358877756
 20
2816.014664999988
 30
-0.0000004391222319
  0
SPLINE
  5
32E
330
1F
100
AcDbEntity
  8
0
  6
Continuous
370
    13
100
AcDbSpline
210
0.0
220
0.0
230
1.0
 70
     8
 71
     3
 72
    22
 73
    18
 74
     0
 42
0.0000000001
 43
0.0000000001
 40
6.030662373476992
 40
6.030662373476992
 40
6.030662373476992
 40
6.030662373476992
 40
6.407353829202205
 40
6.407353829202205
 40
6.784045284927417
 40
6.784045284927417
 40
7.160736740652629
 40
7.160736740652629
 40
7.537428196377842
 40
7.537428196377842
 40
7.914264192636265
 40
7.914264192636265
 40
8.291100188894688
 40
8.291100188894688
 40
8.667936185153113
 40
8.667936185153113
 40
9.044772181411536
 40
9.044772181411536
 40
9.044772181411536
 40
9.044772181411536
 10
2304.351758652746
 20
2816.014664999988
 30
-0.0000004391222319
 10
2304.351758652746
 20
2816.014664999988
 30
-0.0000004391222319
 10
2304.357208616582
 20
2816.003956966728
 30
-0.0000004391222319
 10
2304.380223250905
 20
2815.958878657169
 30
-0.0000004391222319
 10
2304.397783832772
 20
2815.9245184385
 30
-0.0000004391222319
 10
2304.444416726723
 20
2815.833740226859
 30
-0.0000004391222319
 10
2304.473529528275
 20
2815.777251623447
 30
-0.0000004391222319
 10
2304.541171142425
 20
2815.646890320888
 30
-0.0000004391222319
 10
2304.579709284809
 20
2815.573012129956
 30
-0.0000004391222319
 10
2304.662353730689
 20
2815.415795403336
 30
-0.0000004391222319
 10
2304.709280794211
 20
2815.327081976706
 30
-0.0000004391222319
 10
2304.812219302259
 20
2815.134306570188
 30
-0.0000004391222319
 10
2304.868232515482
 20
2815.03025249004
 30
-0.0000004391222319
 10
2304.985990776944
 20
2814.813713093295
 30
-0.0000004391222319
 10
2305.047833245904
 20
2814.701056494465
 30
-0.0000004391222319
 10
2305.173166005088
 20
2814.47506843639
 30
-0.0000004391222319
 10
2305.236658528099
 20
2814.36173586121
 30
-0.0000004391222319
 10
2305.298497391488
 20
2814.252400006138
 30
-0.0000004391222319
  0
LINE
  5
32F
330
1F
100
AcDbEntity
  8
0
  6
Continuous
370
    13
100
AcDbLine
 10
2305.242765176926
 20
2816.468655499731
 30
-0.0000004391222319
 11
2304.351758652746
 21
2816.014664999988
 31
-0.0000004391222319
  0
LINE
  5
330
330
1F
100
AcDbEntity
  8
0
  6
Continuous
370
    13
100
AcDbLine
 10
2320.338058765251
 20
2874.318227988107
 30
-0.0000004391222319
 11
2320.343187291278
 21
2874.318227988107
 31
-0.0000004391222319
  0
LINE
  5
331
330
1F
100
AcDbEntity
  8
0
  6
Continuous
370
    13
100
AcDbLine
 10
2320.338058765251
 20
2874.318227988107
 30
-0.0000004391222319
 11
2320.338058765251
 21
2889.318227988107
 31
-0.0000004391222319
  0
LINE
  5
332
330
1F
100
AcDbEntity
  8
0
  6
Continuous
370
    13
100
AcDbLine
 10
2370.338058765252
 20
2889.318227988107
 30
-0.0000004391222319
 11
2320.338058765251
 21
2889.318227988107
 31
-0.0000004391222319
  0
LINE
  5
333
330
1F
100
AcDbEntity
  8
0
  6
Continuous
370
    13
100
AcDbLine
 10
2370.338058765252
 20
2874.318227988107
 30
-0.0000004391222319
 11
2370.338058765252
 21
2889.318227988107
 31
-0.0000004391222319
  0
LINE
  5
334
330
1F
100
AcDbEntity
  8
0
  6
Continuous
370
    13
100
AcDbLine
 10
2370.33293023921
 20
2874.318227988107
 30
-0.0000004391222319
 11
2370.338058765252
 21
2874.318227988107
 31
-0.0000004391222319
  0
LINE
  5
335
330
1F
100
AcDbEntity
  8
0
  6
Continuous
370
    13
100
AcDbLine
 10
2385.307312961145
 20
2475.253677170345
 30
-0.0000004391222319
 11
2305.368804569365
 21
2475.253677170345
 31
-0.0000004391222319
210
0.0
220
1.0
230
0.0000000000000001
  0
LINE
  5
336
330
1F
100
AcDbEntity
  8
0
  6
Continuous
370
    13
100
AcDbLine
 10
2345.338058765252
 20
2475.753677170345
 30
-0.0000004391222319
 11
2390.338058765252
 21
2475.753677170345
 31
-0.0000004391222319
210
0.0
220
1.0
230
0.0000000000000001
  0
LINE
  5
337
330
1F
100
AcDbEntity
  8
0
  6
Continuous
370
    13
100
AcDbLine
 10
2300.338058765252
 20
2475.753677170345
 30
-0.0000004391222319
 11
2345.338058765252
 21
2475.753677170345
 31
-0.0000004391222319
210
0.0
220
1.0
230
0.0000000000000001
  0
LINE
  5
338
330
1F
100
AcDbEntity
  8
0
  6
Continuous
370
    13
100
AcDbLine
 10
2345.338058765252
 20
2490.753677170345
 30
-0.0000004391222319
 11
2384.445693874166
 21
2490.753677170345
 31
-0.0000004391222319
210
0.0
220
1.0
230
0.0000000000000001
  0
LINE
  5
339
330
1F
100
AcDbEntity
  8
0
  6
Continuous
370
    13
100
AcDbLine
 10
2306.230423656352
 20
2490.753677170345
 30
-0.0000004391222319
 11
2345.338058765252
 21
2490.753677170345
 31
-0.0000004391222319
210
0.0
220
1.0
230
0.0000000000000001
  0
LINE
  5
33A
330
1F
100
AcDbEntity
  8
0
  6
Continuous
370
    13
100
AcDbLine
 10
2345.338058765252
 20
2475.753677170345
 30
-0.0000004391222319
 11
2300.338058765252
 21
2475.753677170345
 31
-0.0000004391222319
210
0.0
220
1.0
230
0.0000000000000001
  0
LINE
  5
33B
330
1F
100
AcDbEntity
  8
0
  6
Continuous
370
    13
100
AcDbLine
 10
2390.338058765252
 20
2475.753677170345
 30
-0.0000004391222319
 11
2345.338058765252
 21
2475.753677170345
 31
-0.0000004391222319
210
0.0
220
1.0
230
0.0000000000000001
  0
LINE
  5
33C
330
1F
100
AcDbEntity
  8
0
  6
Continuous
370
    13
100
AcDbLine
 10
2345.338058765252
 20
2475.253677170345
 30
-0.0000004391222319
 11
2390.338058765252
 21
2475.253677170345
 31
-0.0000004391222319
210
0.0
220
1.0
230
0.0000000000000001
  0
LINE
  5
33D
330
1F
100
AcDbEntity
  8
0
  6
Continuous
370
    13
100
AcDbLine
 10
2300.338058765252
 20
2475.253677170345
 30
-0.0000004391222319
 11
2345.338058765252
 21
2475.253677170345
 31
-0.0000004391222319
210
0.0
220
1.0
230
0.0000000000000001
  0
LINE
  5
33E
330
1F
100
AcDbEntity
  8
0
  6
Continuous
370
    13
100
AcDbLine
 10
2345.338058765252
 20
644.7536771703447
 30
-0.0000004391224593
 11
2390.338058765252
 21
644.7536771703447
 31
-0.0000004391224593
210
0.0
220
1.0
230
0.0000000000000001
  0
LINE
  5
33F
330
1F
100
AcDbEntity
  8
0
  6
Continuous
370
    13
100
AcDbLine
 10
2300.338058765252
 20
644.7536771703447
 30
-0.0000004391224593
 11
2345.338058765252
 21
644.7536771703447
 31
-0.0000004391224593
210
0.0
220
1.0
230
0.0000000000000001
  0
LINE
  5
340
330
1F
100
AcDbEntity
  8
0
  6
Continuous
370
    13
100
AcDbLine
 10
2345.338058765252
 20
629.7536771703447
 30
-0.0000004391224593
 11
2306.230423656352
 21
629.7536771703447
 31
-0.0000004391224593
210
0.0
220
1.0
230
0.0000000000000001
  0
LINE
  5
341
330
1F
100
AcDbEntity
  8
0
  6
Continuous
370
    13
100
AcDbLine
 10
2384.445693874166
 20
629.7536771703447
 30
-0.0000004391224593
 11
2345.338058765252
 21
629.7536771703447
 31
-0.0000004391224593
210
0.0
220
1.0
230
0.0000000000000001
  0
LINE
  5
342
330
1F
100
AcDbEntity
  8
0
  6
Continuous
370
    13
100
AcDbLine
 10
2345.338058765252
 20
644.7536771703447
 30
-0.0000004391224593
 11
2300.338058765252
 21
644.7536771703447
 31
-0.0000004391224593
210
0.0
220
1.0
230
0.0000000000000001
  0
LINE
  5
343
330
1F
100
AcDbEntity
  8
0
  6
Continuous
370
    13
100
AcDbLine
 10
2390.338058765252
 20
644.7536771703447
 30
-0.0000004391224593
 11
2345.338058765252
 21
644.7536771703447
 31
-0.0000004391224593
210
0.0
220
1.0
230
0.0000000000000001
  0
LINE
  5
344
330
1F
100
AcDbEntity
  8
0
  6
Continuous
370
    13
100
AcDbLine
 10
2345.338058765252
 20
645.2536771703448
 30
-0.0000004391224593
 11
2390.338058765252
 21
645.2536771703448
 31
-0.0000004391224593
210
0.0
220
1.0
230
0.0000000000000001
  0
LINE
  5
345
330
1F
100
AcDbEntity
  8
0
  6
Continuous
370
    13
100
AcDbLine
 10
2300.338058765252
 20
645.2536771703448
 30
-0.0000004391224593
 11
2345.338058765252
 21
645.2536771703448
 31
-0.0000004391224593
210
0.0
220
1.0
230
0.0000000000000001
  0
LINE
  5
346
330
1F
100
AcDbEntity
  8
0
  6
Continuous
370
    13
100
AcDbLine
 10
2385.377620139008
 20
1565.253677170345
 30
-0.0000004391224593
 11
2305.298497391502
 21
1565.253677170345
 31
-0.0000004391224593
210
0.0
220
1.0
230
0.0000000000000001
  0
LINE
  5
347
330
1F
100
AcDbEntity
  8
0
  6
Continuous
370
    13
100
AcDbLine
 10
2305.298497391502
 20
1555.253677170345
 30
-0.0000004391224593
 11
2385.377620139008
 21
1555.253677170345
 31
-0.0000004391224593
210
0.0
220
1.0
230
0.0000000000000001
  0
SPLINE
  5
348
330
1F
100
AcDbEntity
  8
0
  6
Continuous
370
    13
100
AcDbSpline
210
0.0
220
0.0
230
1.0
 70
     8
 71
     3
 72
    22
 73
    18
 74
     0
 42
0.0000000001
 43
0.0000000001
 40
6.030662373476993
 40
6.030662373476993
 40
6.030662373476993
 40
6.030662373476993
 40
6.407353829202204
 40
6.407353829202204
 40
6.784045284927413
 40
6.784045284927413
 40
7.160736740652624
 40
7.160736740652624
 40
7.537428196377835
 40
7.537428196377835
 40
7.91426419263626
 40
7.91426419263626
 40
8.291100188894686
 40
8.291100188894686
 40
8.667936185153113
 40
8.667936185153113
 40
9.044772181411538
 40
9.044772181411538
 40
9.044772181411538
 40
9.044772181411538
 10
2304.351758652746
 20
1557.253677170345
 30
-0.0000004391224593
 10
2304.351758652746
 20
1557.128113351769
 30
-0.0000004391224593
 10
2304.357208616582
 20
1556.998260736727
 30
-0.0000004391224593
 10
2304.38022325092
 20
1556.739952006941
 30
-0.0000004391224593
 10
2304.397783832772
 20
1556.611493772834
 30
-0.0000004391224593
 10
2304.44441672673
 20
1556.365113952575
 30
-0.0000004391224593
 10
2304.473529528289
 20
1556.246996135312
 30
-0.0000004391224593
 10
2304.541171142433
 20
1556.028559593469
 30
-0.0000004391224593
 10
2304.579709284809
 20
1555.928247035604
 30
-0.0000004391224593
 10
2304.662353730689
 20
1555.750646113185
 30
-0.0000004391224593
 10
2304.709280794226
 20
1555.6673014826
 30
-0.0000004391224593
 10
2304.812219302273
 20
1555.520418464046
 30
-0.0000004391224593
 10
2304.868232515482
 20
1555.456870947906
 30
-0.0000004391224593
 10
2304.985990776958
 20
1555.354833861783
 30
-0.0000004391224593
 10
2305.047833245918
 20
1555.31626263773
 30
-0.0000004391224593
 10
2305.173166005088
 20
1555.265679032796
 30
-0.0000004391224593
 10
2305.236658528107
 20
1555.253677170345
 30
-0.0000004391224593
 10
2305.298497391502
 20
1555.253677170345
 30
-0.0000004391224593
  0
LINE
  5
349
330
1F
100
AcDbEntity
  8
0
  6
Continuous
370
    13
100
AcDbLine
 10
2304.351758652746
 20
1563.253677170345
 30
-0.0000004391224593
 11
2304.351758652746
 21
1557.253677170345
 31
-0.0000004391224593
210
0.0
220
1.0
230
0.0000000000000001
  0
SPLINE
  5
34A
330
1F
100
AcDbEntity
  8
0
  6
Continuous
370
    13
100
AcDbSpline
210
0.0
220
0.0
230
1.0
 70
     8
 71
     3
 72
    22
 73
    18
 74
     0
 42
0.0000000001
 43
0.0000000001
 40
9.047215022640344
 40
9.047215022640344
 40
9.047215022640344
 40
9.047215022640344
 40
9.424051018898769
 40
9.424051018898769
 40
9.800887015157195
 40
9.800887015157195
 40
10.17772301141562
 40
10.17772301141562
 40
10.55455900767404
 40
10.55455900767404
 40
10.93125046339926
 40
10.93125046339926
 40
11.30794191912446
 40
11.30794191912446
 40
11.68463337484968
 40
11.68463337484968
 40
12.06132483057489
 40
12.06132483057489
 40
12.06132483057489
 40
12.06132483057489
 10
2305.298497391502
 20
1565.253677170345
 30
-0.0000004391224593
 10
2305.236658528107
 20
1565.253677170345
 30
-0.0000004391224593
 10
2305.173166005088
 20
1565.241675307894
 30
-0.0000004391224593
 10
2305.047833245918
 20
1565.191091702959
 30
-0.0000004391224593
 10
2304.985990776958
 20
1565.152520478906
 30
-0.0000004391224593
 10
2304.868232515482
 20
1565.05048339278
 30
-0.0000004391224593
 10
2304.812219302273
 20
1564.986935876644
 30
-0.0000004391224593
 10
2304.709280794226
 20
1564.840052858085
 30
-0.0000004391224593
 10
2304.662353730689
 20
1564.756708227501
 30
-0.0000004391224593
 10
2304.579709284809
 20
1564.579107305082
 30
-0.0000004391224593
 10
2304.541171142433
 20
1564.478794747221
 30
-0.0000004391224593
 10
2304.473529528289
 20
1564.260358205377
 30
-0.0000004391224593
 10
2304.44441672673
 20
1564.142240388115
 30
-0.0000004391224593
 10
2304.397783832772
 20
1563.895860567852
 30
-0.0000004391224593
 10
2304.38022325092
 20
1563.767402333749
 30
-0.0000004391224593
 10
2304.357208616582
 20
1563.509093603959
 30
-0.0000004391224593
 10
2304.351758652746
 20
1563.37924098892
 30
-0.0000004391224593
 10
2304.351758652746
 20
1563.253677170345
 30
-0.0000004391224593
  0
SPLINE
  5
34B
330
1F
100
AcDbEntity
  8
0
  6
Continuous
370
    13
100
AcDbSpline
210
0.0
220
0.0
230
1.0
 70
     8
 71
     3
 72
    22
 73
    18
 74
     0
 42
0.0000000001
 43
0.0000000001
 40
6.030662373476992
 40
6.030662373476992
 40
6.030662373476992
 40
6.030662373476992
 40
6.407353829202205
 40
6.407353829202205
 40
6.784045284927417
 40
6.784045284927417
 40
7.160736740652629
 40
7.160736740652629
 40
7.537428196377842
 40
7.537428196377842
 40
7.914264192636265
 40
7.914264192636265
 40
8.291100188894688
 40
8.291100188894688
 40
8.667936185153113
 40
8.667936185153113
 40
9.044772181411536
 40
9.044772181411536
 40
9.044772181411536
 40
9.044772181411536
 10
2386.324358877756
 20
1563.253677170345
 30
-0.0000004391224593
 10
2386.324358877756
 20
1563.37924098892
 30
-0.0000004391224593
 10
2386.318908913921
 20
1563.509093603959
 30
-0.0000004391224593
 10
2386.295894279597
 20
1563.767402333749
 30
-0.0000004391224593
 10
2386.278333697731
 20
1563.895860567852
 30
-0.0000004391224593
 10
2386.23170080378
 20
1564.142240388115
 30
-0.0000004391224593
 10
2386.202588002221
 20
1564.260358205377
 30
-0.0000004391224593
 10
2386.134946388077
 20
1564.478794747221
 30
-0.0000004391224593
 10
2386.096408245693
 20
1564.579107305082
 30
-0.0000004391224593
 10
2386.013763799814
 20
1564.756708227501
 30
-0.0000004391224593
 10
2385.966836736292
 20
1564.840052858085
 30
-0.0000004391224593
 10
2385.863898228237
 20
1564.986935876644
 30
-0.0000004391224593
 10
2385.807885015021
 20
1565.05048339278
 30
-0.0000004391224593
 10
2385.690126753552
 20
1565.152520478906
 30
-0.0000004391224593
 10
2385.628284284592
 20
1565.191091702959
 30
-0.0000004391224593
 10
2385.502951525415
 20
1565.241675307894
 30
-0.0000004391224593
 10
2385.439459002403
 20
1565.253677170345
 30
-0.0000004391224593
 10
2385.377620139008
 20
1565.253677170345
 30
-0.0000004391224593
  0
LINE
  5
34C
330
1F
100
AcDbEntity
  8
0
  6
Continuous
370
    13
100
AcDbLine
 10
2386.324358877756
 20
1563.253677170345
 30
-0.0000004391224593
 11
2386.324358877756
 21
1557.253677170345
 31
-0.0000004391224593
210
0.0
220
1.0
230
0.0000000000000001
  0
SPLINE
  5
34D
330
1F
100
AcDbEntity
  8
0
  6
Continuous
370
    13
100
AcDbSpline
210
0.0
220
0.0
230
1.0
 70
     8
 71
     3
 72
    22
 73
    18
 74
     0
 42
0.0000000001
 43
0.0000000001
 40
9.047215022640344
 40
9.047215022640344
 40
9.047215022640344
 40
9.047215022640344
 40
9.424051018898772
 40
9.424051018898772
 40
9.800887015157201
 40
9.800887015157201
 40
10.17772301141563
 40
10.17772301141563
 40
10.55455900767406
 40
10.55455900767406
 40
10.93125046339927
 40
10.93125046339927
 40
11.30794191912448
 40
11.30794191912448
 40
11.68463337484969
 40
11.68463337484969
 40
12.0613248305749
 40
12.0613248305749
 40
12.0613248305749
 40
12.0613248305749
 10
2385.377620139008
 20
1555.253677170345
 30
-0.0000004391224593
 10
2385.439459002403
 20
1555.253677170345
 30
-0.0000004391224593
 10
2385.502951525415
 20
1555.265679032796
 30
-0.0000004391224593
 10
2385.628284284592
 20
1555.31626263773
 30
-0.0000004391224593
 10
2385.690126753552
 20
1555.354833861783
 30
-0.0000004391224593
 10
2385.807885015021
 20
1555.456870947906
 30
-0.0000004391224593
 10
2385.863898228237
 20
1555.520418464046
 30
-0.0000004391224593
 10
2385.966836736292
 20
1555.6673014826
 30
-0.0000004391224593
 10
2386.013763799814
 20
1555.750646113185
 30
-0.0000004391224593
 10
2386.096408245693
 20
1555.928247035604
 30
-0.0000004391224593
 10
2386.134946388077
 20
1556.028559593469
 30
-0.0000004391224593
 10
2386.202588002221
 20
1556.246996135312
 30
-0.0000004391224593
 10
2386.23170080378
 20
1556.365113952575
 30
-0.0000004391224593
 10
2386.278333697731
 20
1556.611493772834
 30
-0.0000004391224593
 10
2386.295894279597
 20
1556.739952006941
 30
-0.0000004391224593
 10
2386.318908913921
 20
1556.998260736727
 30
-0.0000004391224593
 10
2386.324358877756
 20
1557.128113351769
 30
-0.0000004391224593
 10
2386.324358877756
 20
1557.253677170345
 30
-0.0000004391224593
  0
LINE
  5
34E
330
1F
100
AcDbEntity
  8
0
  6
Continuous
370
    13
100
AcDbLine
 10
2305.368804569365
 20
645.2536771703448
 30
-0.0000004391224593
 11
2385.307312961145
 21
645.2536771703448
 31
-0.0000004391224593
210
0.0
220
1.0
230
0.0000000000000001
  0
LINE
  5
34F
330
1F
100
AcDbEntity
  8
0
  6
Continuous
370
    13
100
AcDbLine
 10
2305.151659486555
 20
645.2536771703448
 30
-0.0000004391224593
 11
2305.151659486555
 21
1555.276268366625
 31
-0.0000004391224593
210
0.0
220
1.0
230
0.0000000000000001
  0
LINE
  5
350
330
1F
100
AcDbEntity
  8
0
  6
Continuous
370
    13
100
AcDbLine
 10
2305.151659486555
 20
1565.231085974064
 30
-0.0000004391224593
 11
2305.151659486555
 21
2475.253677170345
 31
-0.0000004391222319
210
0.0
220
1.0
230
0.0000000000000001
  0
LINE
  5
351
330
1F
100
AcDbEntity
  8
0
  6
Continuous
370
    13
100
AcDbLine
 10
2385.524458043963
 20
645.2536771703448
 30
-0.0000004391224593
 11
2385.524458043963
 21
1555.276268366625
 31
-0.0000004391224593
210
0.0
220
1.0
230
0.0000000000000001
  0
LINE
  5
352
330
1F
100
AcDbEntity
  8
0
  6
Continuous
370
    13
100
AcDbLine
 10
2385.524458043963
 20
1565.23108597406
 30
-0.0000004391224593
 11
2385.524458043963
 21
2475.253677170345
 31
-0.0000004391222319
210
0.0
220
1.0
230
0.0000000000000001
  0
LINE
  5
353
330
1F
100
AcDbEntity
  8
0
  6
Continuous
370
    13
100
AcDbLine
 10
2305.151659486555
 20
2475.253677170345
 30
-0.0000004391222319
 11
2300.338058765433
 21
2475.253677170345
 31
-0.0000004391222319
210
0.0
220
1.0
230
0.0000000000000001
  0
LINE
  5
354
330
1F
100
AcDbEntity
  8
0
  6
Continuous
370
    13
100
AcDbLine
 10
2390.338058765077
 20
2475.253677170345
 30
-0.0000004391222319
 11
2385.524458043963
 21
2475.253677170345
 31
-0.0000004391222319
210
0.0
220
1.0
230
0.0000000000000001
  0
LINE
  5
355
330
1F
100
AcDbEntity
  8
0
  6
Continuous
370
    13
100
AcDbLine
 10
2385.524458043963
 20
645.2536771703448
 30
-0.0000004391224593
 11
2390.338058765077
 21
645.2536771703448
 31
-0.0000004391224593
210
0.0
220
1.0
230
0.0000000000000001
  0
LINE
  5
356
330
1F
100
AcDbEntity
  8
0
  6
Continuous
370
    13
100
AcDbLine
 10
2300.338058765433
 20
645.2536771703448
 30
-0.0000004391224593
 11
2305.151659486555
 21
645.2536771703448
 31
-0.0000004391224593
210
0.0
220
1.0
230
0.0000000000000001
  0
LINE
  5
357
330
1F
100
AcDbEntity
  8
0
  6
Continuous
370
    13
100
AcDbLine
 10
2305.312907393769
 20
2475.253677170345
 30
-0.0000004391222319
 11
2305.312907393769
 21
1565.253677170345
 31
-0.0000004391224593
210
0.0
220
1.0
230
0.0000000000000001
  0
LINE
  5
358
330
1F
100
AcDbEntity
  8
0
  6
Continuous
370
    13
100
AcDbLine
 10
2385.363210136742
 20
1565.253677170345
 30
-0.0000004391224593
 11
2385.363210136742
 21
2475.253677170345
 31
-0.0000004391222319
210
0.0
220
1.0
230
0.0000000000000001
  0
LINE
  5
359
330
1F
100
AcDbEntity
  8
0
  6
Continuous
370
    13
100
AcDbLine
 10
2389.426734481765
 20
2486.188688050075
 30
-0.0000004391222319
 11
2390.338058765252
 21
2475.753677170345
 31
-0.0000004391222319
210
0.0
220
1.0
230
0.0000000000000001
  0
LINE
  5
35A
330
1F
100
AcDbEntity
  8
0
  6
Continuous
370
    13
100
AcDbLine
 10
2301.249383048753
 20
2486.188688050075
 30
-0.0000004391222319
 11
2300.338058765252
 21
2475.753677170345
 31
-0.0000004391222319
210
0.0
220
1.0
230
0.0000000000000001
  0
ARC
  5
35B
330
1F
100
AcDbEntity
  8
0
  6
Continuous
370
    13
100
AcDbCircle
 10
-2384.445693874166
 20
2485.753677170345
 30
0.0000004391223841
 40
5.0
210
0.0
220
0.0000000000000001
230
-1.0
100
AcDbArc
 50
90.0
 51
175.0088322799324
  0
ARC
  5
35C
330
1F
100
AcDbEntity
  8
0
  6
Continuous
370
    13
100
AcDbCircle
 10
-2306.230423656352
 20
2485.753677170345
 30
0.0000004391223841
 40
5.0
210
0.0
220
0.0000000000000001
230
-1.0
100
AcDbArc
 50
4.991167720067552
 51
90.0
  0
LINE
  5
35D
330
1F
100
AcDbEntity
  8
0
  6
Continuous
370
    13
100
AcDbLine
 10
2300.338058765252
 20
2475.253677170345
 30
-0.0000004391222319
 11
2300.338058765252
 21
2475.753677170345
 31
-0.0000004391222319
210
0.0
220
1.0
230
0.0000000000000001
  0
LINE
  5
35E
330
1F
100
AcDbEntity
  8
0
  6
Continuous
370
    13
100
AcDbLine
 10
2390.338058765252
 20
2475.253677170345
 30
-0.0000004391222319
 11
2390.338058765252
 21
2475.753677170345
 31
-0.0000004391222319
210
0.0
220
1.0
230
0.0000000000000001
  0
LINE
  5
35F
330
1F
100
AcDbEntity
  8
0
  6
Continuous
370
    13
100
AcDbLine
 10
2301.249383048753
 20
634.3186662906149
 30
-0.0000004391224593
 11
2300.338058765252
 21
644.7536771703447
 31
-0.0000004391224593
210
0.0
220
1.0
230
0.0000000000000001
  0
LINE
  5
360
330
1F
100
AcDbEntity
  8
0
  6
Continuous
370
    13
100
AcDbLine
 10
2389.426734481765
 20
634.3186662906149
 30
-0.0000004391224593
 11
2390.338058765252
 21
644.7536771703447
 31
-0.0000004391224593
210
0.0
220
1.0
230
0.0000000000000001
  0
ARC
  5
361
330
1F
100
AcDbEntity
  8
0
  6
Continuous
370
    13
100
AcDbCircle
 10
-2384.445693874166
 20
634.7536771703447
 30
0.0000004391224982
 40
5.0
210
0.0
220
0.0000000000000001
230
-1.0
100
AcDbArc
 50
184.9911677200675
 51
270.0
  0
ARC
  5
362
330
1F
100
AcDbEntity
  8
0
  6
Continuous
370
    13
100
AcDbCircle
 10
-2306.230423656352
 20
634.7536771703447
 30
0.0000004391224982
 40
5.0
210
0.0
220
0.0000000000000001
230
-1.0
100
AcDbArc
 50
270.0
 51
355.0088322799325
  0
LINE
  5
363
330
1F
100
AcDbEntity
  8
0
  6
Continuous
370
    13
100
AcDbLine
 10
2300.338058765252
 20
644.7536771703447
 30
-0.0000004391224593
 11
2300.338058765252
 21
645.2536771703448
 31
-0.0000004391224593
210
0.0
220
1.0
230
0.0000000000000001
  0
LINE
  5
364
330
1F
100
AcDbEntity
  8
0
  6
Continuous
370
    13
100
AcDbLine
 10
2390.338058765252
 20
644.7536771703447
 30
-0.0000004391224593
 11
2390.338058765252
 21
645.2536771703448
 31
-0.0000004391224593
210
0.0
220
1.0
230
0.0000000000000001
  0
LINE
  5
365
330
1F
100
AcDbEntity
  8
0
  6
Continuous
370
    13
100
AcDbLine
 10
2305.312907393769
 20
1555.253677170345
 30
-0.0000004391224593
 11
2305.312907393769
 21
645.2536771703448
 31
-0.0000004391224593
210
0.0
220
1.0
230
0.0000000000000001
  0
LINE
  5
366
330
1F
100
AcDbEntity
  8
0
  6
Continuous
370
    13
100
AcDbLine
 10
2385.363210136742
 20
645.2536771703448
 30
-0.0000004391224593
 11
2385.363210136742
 21
1555.253677170345
 31
-0.0000004391224593
210
0.0
220
1.0
230
0.0000000000000001
  0
LINE
  5
367
330
1F
100
AcDbEntity
  8
0
  6
Continuous
370
    13
100
AcDbLine
 10
2300.338058765433
 20
645.2536771703448
 30
-0.0000004391224593
 11
2300.338058765433
 21
2475.253677170345
 31
-0.0000004391222319
210
0.0
220
1.0
230
0.0000000000000001
  0
LINE
  5
368
330
1F
100
AcDbEntity
  8
0
  6
Continuous
370
    13
100
AcDbLine
 10
2390.338058765077
 20
645.2536771703448
 30
-0.0000004391224593
 11
2390.338058765077
 21
2475.253677170345
 31
-0.0000004391222319
210
0.0
220
1.0
230
0.0000000000000001
  0
LINE
  5
369
330
1F
100
AcDbEntity
  8
0
  6
Continuous
370
    13
100
AcDbLine
 10
3349.177652718035
 20
2475.753677170345
 30
-0.0000004391220045
 11
3439.177652718035
 21
2475.753677170345
 31
-0.0000004391220045
210
0.0
220
1.0
230
-0.0000000000000002
  0
LINE
  5
36A
330
1F
100
AcDbEntity
  8
0
  6
Continuous
370
    13
100
AcDbLine
 10
3355.070017609128
 20
2490.753677170345
 30
-0.0000004391220045
 11
3433.285287826942
 21
2490.753677170345
 31
-0.0000004391220045
210
0.0
220
1.0
230
-0.0000000000000002
  0
LINE
  5
36B
330
1F
100
AcDbEntity
  8
0
  6
Continuous
370
    13
100
AcDbLine
 10
3439.177652718035
 20
2475.753677170345
 30
-0.0000004391220045
 11
3349.177652718035
 21
2475.753677170345
 31
-0.0000004391220045
210
0.0
220
1.0
230
-0.0000000000000002
  0
LINE
  5
36C
330
1F
100
AcDbEntity
  8
0
  6
Continuous
370
    13
100
AcDbLine
 10
3349.177652718035
 20
2475.253677170345
 30
-0.0000004391220045
 11
3439.177652718035
 21
2475.253677170345
 31
-0.0000004391220045
210
0.0
220
1.0
230
-0.0000000000000002
  0
LINE
  5
36D
330
1F
100
AcDbEntity
  8
0
  6
Continuous
370
    13
100
AcDbLine
 10
3349.177652718035
 20
644.7536771703447
 30
-0.0000004391215498
 11
3439.177652718035
 21
644.7536771703447
 31
-0.0000004391215498
210
0.0
220
1.0
230
-0.0000000000000002
  0
LINE
  5
36E
330
1F
100
AcDbEntity
  8
0
  6
Continuous
370
    13
100
AcDbLine
 10
3433.285287826942
 20
629.7536771703447
 30
-0.0000004391215498
 11
3355.070017609128
 21
629.7536771703447
 31
-0.0000004391215498
210
0.0
220
1.0
230
-0.0000000000000002
  0
LINE
  5
36F
330
1F
100
AcDbEntity
  8
0
  6
Continuous
370
    13
100
AcDbLine
 10
3439.177652718035
 20
644.7536771703447
 30
-0.0000004391215498
 11
3349.177652718035
 21
644.7536771703447
 31
-0.0000004391215498
210
0.0
220
1.0
230
-0.0000000000000002
  0
LINE
  5
370
330
1F
100
AcDbEntity
  8
0
  6
Continuous
370
    13
100
AcDbLine
 10
3349.177652718035
 20
645.2536771703448
 30
-0.0000004391215498
 11
3439.177652718035
 21
645.2536771703448
 31
-0.0000004391215498
210
0.0
220
1.0
230
-0.0000000000000002
  0
LINE
  5
371
330
1F
100
AcDbEntity
  8
0
  6
Continuous
370
    13
100
AcDbLine
 10
3439.177652717861
 20
2475.253677170345
 30
-0.0000004391220045
 11
3349.17765271821
 21
2475.253677170345
 31
-0.0000004391220045
210
0.0
220
1.0
230
-0.0000000000000002
  0
LINE
  5
372
330
1F
100
AcDbEntity
  8
0
  6
Continuous
370
    13
100
AcDbLine
 10
3349.17765271821
 20
645.2536771703448
 30
-0.0000004391215498
 11
3439.177652717861
 21
645.2536771703448
 31
-0.0000004391215498
210
0.0
220
1.0
230
-0.0000000000000002
  0
LINE
  5
373
330
1F
100
AcDbEntity
  8
0
  6
Continuous
370
    13
100
AcDbLine
 10
3384.202652718037
 20
678.9786771703433
 30
-0.0000004391215498
 11
3404.152652718041
 21
678.9786771703433
 31
-0.0000004391215498
210
0.0
220
1.0
230
-0.0000000000000002
  0
SPLINE
  5
374
330
1F
100
AcDbEntity
  8
0
  6
Continuous
370
    13
100
AcDbSpline
210
0.0
220
0.0
230
1.0
 70
     8
 71
     3
 72
    22
 73
    18
 74
     0
 42
0.0000000001
 43
0.0000000001
 40
11.22306636309895
 40
11.22306636309895
 40
11.22306636309895
 40
11.22306636309895
 40
11.92175013376379
 40
11.92175013376379
 40
12.62043390442864
 40
12.62043390442864
 40
13.31911767509349
 40
13.31911767509349
 40
14.01780144575833
 40
14.01780144575833
 40
14.72787478975737
 40
14.72787478975737
 40
15.43794813375641
 40
15.43794813375641
 40
16.14802147775545
 40
16.14802147775545
 40
16.85809482175449
 40
16.85809482175449
 40
16.85809482175449
 40
16.85809482175449
 10
3380.527652718041
 20
682.6536771703461
 30
-0.0000004391215498
 10
3380.527652718041
 20
682.4207825801234
 30
-0.0000004391215498
 10
3380.550153607141
 20
682.1804376754438
 30
-0.0000004391215498
 10
3380.644297631619
 20
681.7035116824184
 30
-0.0000004391215498
 10
3380.715917783835
 20
681.4669252932902
 30
-0.0000004391215498
 10
3380.90439904688
 20
681.0144018668428
 30
-0.0000004391215498
 10
3381.021416942903
 20
680.7980692968479
 30
-0.0000004391215498
 10
3381.290577458518
 20
680.3990465306809
 30
-0.0000004391215498
 10
3381.442733449201
 20
680.2163615974599
 30
-0.0000004391215498
 10
3381.767966602574
 20
679.8911284440868
 30
-0.0000004391215498
 10
3381.952767815093
 20
679.7378256067125
 30
-0.0000004391215498
 10
3382.354498241942
 20
679.4680065265451
 30
-0.0000004391215498
 10
3382.571418115965
 20
679.3514675427972
 30
-0.0000004391215498
 10
3383.023678225045
 20
679.1643313912094
 30
-0.0000004391215498
 10
3383.259348605717
 20
679.0936005106662
 30
-0.0000004391215498
 10
3383.733431534465
 20
679.0007605340028
 30
-0.0000004391215498
 10
3383.971849886709
 20
678.9786771703433
 30
-0.0000004391215498
 10
3384.202652718037
 20
678.9786771703433
 30
-0.0000004391215498
  0
LINE
  5
375
330
1F
100
AcDbEntity
  8
0
  6
Continuous
370
    13
100
AcDbLine
 10
3407.827652718037
 20
682.6536771703461
 30
-0.0000004391215498
 11
3407.827652718037
 21
707.8536771703433
 31
-0.0000004391215498
210
0.0
220
1.0
230
-0.0000000000000002
  0
SPLINE
  5
376
330
1F
100
AcDbEntity
  8
0
  6
Continuous
370
    13
100
AcDbSpline
210
0.0
220
0.0
230
1.0
 70
     8
 71
     3
 72
    22
 73
    18
 74
     0
 42
0.0000000001
 43
0.0000000001
 40
-5.635028458655654
 40
-5.635028458655654
 40
-5.635028458655654
 40
-5.635028458655654
 40
-4.924955114656615
 40
-4.924955114656615
 40
-4.214881770657576
 40
-4.214881770657576
 40
-3.504808426658541
 40
-3.504808426658541
 40
-2.794735082659503
 40
-2.794735082659503
 40
-2.096051311994628
 40
-2.096051311994628
 40
-1.397367541329749
 40
-1.397367541329749
 40
-0.698683770664875
 40
-0.698683770664875
 40
0.0
 40
0.0
 40
0.0
 40
0.0
 10
3404.152652718041
 20
678.9786771703433
 30
-0.0000004391215498
 10
3404.383455549361
 20
678.9786771703433
 30
-0.0000004391215498
 10
3404.621873901606
 20
679.0007605340028
 30
-0.0000004391215498
 10
3405.095956830353
 20
679.0936005106662
 30
-0.0000004391215498
 10
3405.331627211026
 20
679.1643313912094
 30
-0.0000004391215498
 10
3405.783887320105
 20
679.3514675427972
 30
-0.0000004391215498
 10
3406.000807194129
 20
679.4680065265414
 30
-0.0000004391215498
 10
3406.402537620977
 20
679.7378256067125
 30
-0.0000004391215498
 10
3406.587338833503
 20
679.8911284440868
 30
-0.0000004391215498
 10
3406.912571986877
 20
680.2163615974599
 30
-0.0000004391215498
 10
3407.06472797756
 20
680.3990465306773
 30
-0.0000004391215498
 10
3407.333888493174
 20
680.7980692968479
 30
-0.0000004391215498
 10
3407.450906389198
 20
681.0144018668428
 30
-0.0000004391215498
 10
3407.639387652236
 20
681.4669252932902
 30
-0.0000004391215498
 10
3407.711007804451
 20
681.7035116824184
 30
-0.0000004391215498
 10
3407.80515182893
 20
682.1804376754474
 30
-0.0000004391215498
 10
3407.827652718037
 20
682.4207825801234
 30
-0.0000004391215498
 10
3407.827652718037
 20
682.6536771703461
 30
-0.0000004391215498
  0
LINE
  5
377
330
1F
100
AcDbEntity
  8
0
  6
Continuous
370
    13
100
AcDbLine
 10
3380.527652718041
 20
707.8536771703433
 30
-0.0000004391215498
 11
3380.527652718041
 21
682.6536771703461
 31
-0.0000004391215498
210
0.0
220
1.0
230
-0.0000000000000002
  0
SPLINE
  5
378
330
1F
100
AcDbEntity
  8
0
  6
Continuous
370
    13
100
AcDbSpline
210
0.0
220
0.0
230
1.0
 70
     8
 71
     3
 72
    22
 73
    18
 74
     0
 42
0.0000000001
 43
0.0000000001
 40
5.588087314999376
 40
5.588087314999376
 40
5.588087314999376
 40
5.588087314999376
 40
6.304596986067686
 40
6.304596986067686
 40
7.021106657135995
 40
7.021106657135995
 40
7.737616328204304
 40
7.737616328204304
 40
8.454125999272614
 40
8.454125999272614
 40
9.146361090229252
 40
9.146361090229252
 40
9.838596181185891
 40
9.838596181185891
 40
10.53083127214253
 40
10.53083127214253
 40
11.22306636309917
 40
11.22306636309917
 40
11.22306636309917
 40
11.22306636309917
 10
3384.202652718037
 20
711.5286771703462
 30
-0.0000004391215498
 10
3383.9697578176
 20
711.5286771703462
 30
-0.0000004391215498
 10
3383.729248638907
 20
711.5061922592461
 30
-0.0000004391215498
 10
3383.25124239948
 20
711.4117379205922
 30
-0.0000004391215498
 10
3383.013739245028
 20
711.3397952603076
 30
-0.0000004391215498
 10
3382.558289103867
 20
711.1495234674324
 30
-0.0000004391215498
 10
3382.340004855921
 20
711.0310564598834
 30
-0.0000004391215498
 10
3381.93617167802
 20
710.7568237223452
 30
-0.0000004391215498
 10
3381.750632617806
 20
710.6010344222625
 30
-0.0000004391215498
 10
3381.427565270287
 20
710.2735154365322
 30
-0.0000004391215498
 10
3381.277844257807
 20
710.0915428551119
 30
-0.0000004391215498
 10
3381.013046567293
 20
709.6945899749183
 30
-0.0000004391215498
 10
3380.897957284733
 20
709.4796144532587
 30
-0.0000004391215498
 10
3380.712630189535
 20
709.0302936905894
 30
-0.0000004391215498
 10
3380.642240595714
 20
708.7955614679771
 30
-0.0000004391215498
 10
3380.549740811288
 20
708.3226282463323
 30
-0.0000004391215498
 10
3380.527652718041
 20
708.0844222006629
 30
-0.0000004391215498
 10
3380.527652718041
 20
707.8536771703433
 30
-0.0000004391215498
  0
LINE
  5
379
330
1F
100
AcDbEntity
  8
0
  6
Continuous
370
    13
100
AcDbLine
 10
3404.152652718041
 20
711.5286771703462
 30
-0.0000004391215498
 11
3384.202652718037
 21
711.5286771703462
 31
-0.0000004391215498
210
0.0
220
1.0
230
-0.0000000000000002
  0
SPLINE
  5
37A
330
1F
100
AcDbEntity
  8
0
  6
Continuous
370
    13
100
AcDbSpline
210
0.0
220
0.0
230
1.0
 70
     8
 71
     3
 72
    22
 73
    18
 74
     0
 42
0.0000000001
 43
0.0000000001
 40
0.0
 40
0.0
 40
0.0
 40
0.0
 40
0.6922350909565294
 40
0.6922350909565294
 40
1.384470181913058
 40
1.384470181913058
 40
2.076705272869587
 40
2.076705272869587
 40
2.768940363826117
 40
2.768940363826117
 40
3.485450034894487
 40
3.485450034894487
 40
4.201959705962856
 40
4.201959705962856
 40
4.918469377031226
 40
4.918469377031226
 40
5.634979048099596
 40
5.634979048099596
 40
5.634979048099596
 40
5.634979048099596
 10
3407.827652718037
 20
707.8536771703433
 30
-0.0000004391215498
 10
3407.827652718037
 20
708.0844222006629
 30
-0.0000004391215498
 10
3407.805564624798
 20
708.3226282463287
 30
-0.0000004391215498
 10
3407.713064840371
 20
708.7955614679734
 30
-0.0000004391215498
 10
3407.642675246535
 20
709.0302936905894
 30
-0.0000004391215498
 10
3407.457348151338
 20
709.479614453255
 30
-0.0000004391215498
 10
3407.342258868784
 20
709.6945899749147
 30
-0.0000004391215498
 10
3407.07746117827
 20
710.0915428551083
 30
-0.0000004391215498
 10
3406.927740165791
 20
710.2735154365322
 30
-0.0000004391215498
 10
3406.604672818271
 20
710.6010344222589
 30
-0.0000004391215498
 10
3406.41913375805
 20
710.7568237223452
 30
-0.0000004391215498
 10
3406.015300580149
 20
711.0310564598834
 30
-0.0000004391215498
 10
3405.797016332204
 20
711.1495234674361
 30
-0.0000004391215498
 10
3405.341566191042
 20
711.3397952603112
 30
-0.0000004391215498
 10
3405.104063036591
 20
711.4117379205922
 30
-0.0000004391215498
 10
3404.626056797171
 20
711.5061922592461
 30
-0.0000004391215498
 10
3404.385547618478
 20
711.5286771703462
 30
-0.0000004391215498
 10
3404.152652718041
 20
711.5286771703462
 30
-0.0000004391215498
  0
ARC
  5
37B
330
1F
100
AcDbEntity
  8
0
  6
Continuous
370
    13
100
AcDbCircle
 10
-3403.677652718035
 20
707.2536771703447
 30
0.0000004391214199
 40
3.5
210
0.0
220
-0.0000000000000002
230
-1.0
100
AcDbArc
 50
90.0
 51
180.0
  0
LINE
  5
37C
330
1F
100
AcDbEntity
  8
0
  6
Continuous
370
    13
100
AcDbLine
 10
3403.677652718035
 20
710.7536771703447
 30
-0.0000004391215498
 11
3384.677652718036
 21
710.7536771703447
 31
-0.0000004391215498
210
0.0
220
1.0
230
-0.0000000000000002
  0
ARC
  5
37D
330
1F
100
AcDbEntity
  8
0
  6
Continuous
370
    13
100
AcDbCircle
 10
-3384.677652718036
 20
707.2536771703447
 30
0.0000004391214199
 40
3.5
210
0.0
220
-0.0000000000000002
230
-1.0
100
AcDbArc
 50
0.0
 51
90.0
  0
LINE
  5
37E
330
1F
100
AcDbEntity
  8
0
  6
Continuous
370
    13
100
AcDbLine
 10
3381.177652718035
 20
707.2536771703447
 30
-0.0000004391215498
 11
3381.177652718035
 21
683.2536771703447
 31
-0.0000004391215498
210
0.0
220
1.0
230
-0.0000000000000002
  0
ARC
  5
37F
330
1F
100
AcDbEntity
  8
0
  6
Continuous
370
    13
100
AcDbCircle
 10
-3384.677652718036
 20
683.2536771703447
 30
0.0000004391214243
 40
3.5
210
0.0
220
-0.0000000000000002
230
-1.0
100
AcDbArc
 50
270.0
 51
0.0
  0
LINE
  5
380
330
1F
100
AcDbEntity
  8
0
  6
Continuous
370
    13
100
AcDbLine
 10
3384.677652718036
 20
679.7536771703447
 30
-0.0000004391215498
 11
3403.677652718035
 21
679.7536771703447
 31
-0.0000004391215498
210
0.0
220
1.0
230
-0.0000000000000002
  0
LINE
  5
381
330
1F
100
AcDbEntity
  8
0
  6
Continuous
370
    13
100
AcDbLine
 10
3407.177652718035
 20
683.2536771703447
 30
-0.0000004391215498
 11
3407.177652718035
 21
707.2536771703447
 31
-0.0000004391215498
210
0.0
220
1.0
230
-0.0000000000000002
  0
ARC
  5
382
330
1F
100
AcDbEntity
  8
0
  6
Continuous
370
    13
100
AcDbCircle
 10
-3403.677652718035
 20
683.2536771703447
 30
0.0000004391214243
 40
3.5
210
0.0
220
-0.0000000000000002
230
-1.0
100
AcDbArc
 50
180.0
 51
270.0
  0
LINE
  5
383
330
1F
100
AcDbEntity
  8
0
  6
Continuous
370
    13
100
AcDbLine
 10
3369.177652718035
 20
1660.253677050077
 30
-0.0000004391220045
 11
3369.177652718035
 21
1460.253677050073
 31
-0.0000004391220045
210
0.0
220
1.0
230
-0.0000000000000002
  0
LINE
  5
384
102
{ACAD_REACTORS
330
3F0
102
}
330
1F
100
AcDbEntity
  8
0
  6
Continuous
370
    13
100
AcDbLine
 10
3369.177652718035
 20
1460.253677050073
 30
-0.0000004391220045
 11
3419.177652718035
 21
1460.253677050073
 31
-0.0000004391220045
210
0.0
220
1.0
230
-0.0000000000000002
  0
LINE
  5
385
330
1F
100
AcDbEntity
  8
0
  6
Continuous
370
    13
100
AcDbLine
 10
3419.177652718035
 20
1460.253677050073
 30
-0.0000004391220045
 11
3419.177652718035
 21
1660.253677050077
 31
-0.0000004391220045
210
0.0
220
1.0
230
-0.0000000000000002
  0
LINE
  5
386
330
1F
100
AcDbEntity
  8
0
  6
Continuous
370
    13
100
AcDbLine
 10
3419.177652718035
 20
1660.253677050077
 30
-0.0000004391220045
 11
3369.177652718035
 21
1660.253677050077
 31
-0.0000004391220045
210
0.0
220
1.0
230
-0.0000000000000002
  0
CIRCLE
  5
387
330
1F
100
AcDbEntity
  8
0
  6
Continuous
370
    13
100
AcDbCircle
 10
-3412.177652718035
 20
1480.253677050073
 30
0.0000004391217326
 40
2.0
210
0.0
220
-0.0000000000000002
230
-1.0
  0
CIRCLE
  5
388
330
1F
100
AcDbEntity
  8
0
  6
Continuous
370
    13
100
AcDbCircle
 10
-3412.177652718035
 20
1640.253677050077
 30
0.0000004391217032
 40
2.0
210
0.0
220
-0.0000000000000002
230
-1.0
  0
CIRCLE
  5
389
330
1F
100
AcDbEntity
  8
0
  6
Continuous
370
    13
100
AcDbCircle
 10
-3376.177652718035
 20
1480.253677050073
 30
0.0000004391217326
 40
2.0
210
0.0
220
-0.0000000000000002
230
-1.0
  0
CIRCLE
  5
38A
330
1F
100
AcDbEntity
  8
0
  6
Continuous
370
    13
100
AcDbCircle
 10
-3376.177652718035
 20
1640.253677050077
 30
0.0000004391217032
 40
2.0
210
0.0
220
-0.0000000000000002
230
-1.0
  0
LINE
  5
38B
330
1F
100
AcDbEntity
  8
0
  6
Continuous
370
    13
100
AcDbLine
 10
3438.266328434541
 20
2486.188688050075
 30
-0.0000004391220045
 11
3439.177652718035
 21
2475.753677170345
 31
-0.0000004391220045
210
0.0
220
1.0
230
-0.0000000000000002
  0
LINE
  5
38C
330
1F
100
AcDbEntity
  8
0
  6
Continuous
370
    13
100
AcDbLine
 10
3350.088977001529
 20
2486.188688050075
 30
-0.0000004391220045
 11
3349.177652718035
 21
2475.753677170345
 31
-0.0000004391220045
210
0.0
220
1.0
230
-0.0000000000000002
  0
ARC
  5
38D
330
1F
100
AcDbEntity
  8
0
  6
Continuous
370
    13
100
AcDbCircle
 10
-3433.285287826942
 20
2485.753677170345
 30
0.0000004391215479
 40
5.0
210
0.0
220
-0.0000000000000002
230
-1.0
100
AcDbArc
 50
90.0
 51
175.0088322797248
  0
ARC
  5
38E
330
1F
100
AcDbEntity
  8
0
  6
Continuous
370
    13
100
AcDbCircle
 10
-3355.070017609128
 20
2485.753677170345
 30
0.0000004391215479
 40
5.0
210
0.0
220
-0.0000000000000002
230
-1.0
100
AcDbArc
 50
4.991167720275138
 51
90.0
  0
LINE
  5
38F
330
1F
100
AcDbEntity
  8
0
  6
Continuous
370
    13
100
AcDbLine
 10
3349.177652718035
 20
2475.253677170345
 30
-0.0000004391220045
 11
3349.177652718035
 21
2475.753677170345
 31
-0.0000004391220045
210
0.0
220
1.0
230
-0.0000000000000002
  0
LINE
  5
390
330
1F
100
AcDbEntity
  8
0
  6
Continuous
370
    13
100
AcDbLine
 10
3439.177652718035
 20
2475.253677170345
 30
-0.0000004391220045
 11
3439.177652718035
 21
2475.753677170345
 31
-0.0000004391220045
210
0.0
220
1.0
230
-0.0000000000000002
  0
LINE
  5
391
330
1F
100
AcDbEntity
  8
0
  6
Continuous
370
    13
100
AcDbLine
 10
3350.088977001529
 20
634.3186662906149
 30
-0.0000004391215498
 11
3349.177652718035
 21
644.7536771703447
 31
-0.0000004391215498
210
0.0
220
1.0
230
-0.0000000000000002
  0
LINE
  5
392
330
1F
100
AcDbEntity
  8
0
  6
Continuous
370
    13
100
AcDbLine
 10
3438.266328434541
 20
634.3186662906149
 30
-0.0000004391215498
 11
3439.177652718035
 21
644.7536771703447
 31
-0.0000004391215498
210
0.0
220
1.0
230
-0.0000000000000002
  0
ARC
  5
393
330
1F
100
AcDbEntity
  8
0
  6
Continuous
370
    13
100
AcDbCircle
 10
-3433.285287826942
 20
634.7536771703447
 30
0.0000004391214332
 40
5.0
210
0.0
220
-0.0000000000000002
230
-1.0
100
AcDbArc
 50
184.9911677202751
 51
270.0
  0
ARC
  5
394
330
1F
100
AcDbEntity
  8
0
  6
Continuous
370
    13
100
AcDbCircle
 10
-3355.070017609128
 20
634.7536771703447
 30
0.0000004391214332
 40
5.0
210
0.0
220
-0.0000000000000002
230
-1.0
100
AcDbArc
 50
270.0
 51
355.0088322797249
  0
LINE
  5
395
330
1F
100
AcDbEntity
  8
0
  6
Continuous
370
    13
100
AcDbLine
 10
3349.177652718035
 20
644.7536771703447
 30
-0.0000004391215498
 11
3349.177652718035
 21
645.2536771703448
 31
-0.0000004391215498
210
0.0
220
1.0
230
-0.0000000000000002
  0
LINE
  5
396
330
1F
100
AcDbEntity
  8
0
  6
Continuous
370
    13
100
AcDbLine
 10
3439.177652718035
 20
644.7536771703447
 30
-0.0000004391215498
 11
3439.177652718035
 21
645.2536771703448
 31
-0.0000004391215498
210
0.0
220
1.0
230
-0.0000000000000002
  0
LINE
  5
397
330
1F
100
AcDbEntity
  8
0
  6
Continuous
370
    13
100
AcDbLine
 10
3349.17765271821
 20
645.2536771703448
 30
-0.0000004391215498
 11
3349.17765271821
 21
2475.253677170345
 31
-0.0000004391220045
210
0.0
220
1.0
230
-0.0000000000000002
  0
LINE
  5
398
330
1F
100
AcDbEntity
  8
0
  6
Continuous
370
    13
100
AcDbLine
 10
3439.177652717861
 20
645.2536771703448
 30
-0.0000004391215498
 11
3439.177652717861
 21
2475.253677170345
 31
-0.0000004391220045
210
0.0
220
1.0
230
-0.0000000000000002
  0
LINE
  5
399
330
1F
100
AcDbEntity
  8
0
  6
Continuous
370
    13
100
AcDbLine
 10
2840.03312445531
 20
1562.253677170345
 30
-0.0000004391220045
 11
2839.853325126061
 21
1562.253677170345
 31
-0.0000004391220045
210
0.0000000000000001
220
1.0
230
-0.0000000000000002
  0
LINE
  5
39A
330
1F
100
AcDbEntity
  8
0
  6
Continuous
370
    13
100
AcDbLine
 10
2815.282897614621
 20
2475.253677170345
 30
-0.0000004391222319
 11
2839.607822789711
 21
2475.253677170345
 31
-0.0000004391222319
210
0.0000000000000001
220
1.0
230
-0.0000000000000002
  0
LINE
  5
39B
330
1F
100
AcDbEntity
  8
0
  6
Continuous
370
    13
100
AcDbLine
 10
2905.282897614439
 20
2475.753677170345
 30
-0.0000004391222319
 11
2815.282897614439
 21
2475.753677170345
 31
-0.0000004391222319
210
0.0000000000000001
220
1.0
230
-0.0000000000000002
  0
LINE
  5
39C
330
1F
100
AcDbEntity
  8
0
  6
Continuous
370
    13
100
AcDbLine
 10
2899.390532723353
 20
2490.753677170345
 30
-0.0000004391222319
 11
2821.175262505532
 21
2490.753677170345
 31
-0.0000004391222319
210
0.0000000000000001
220
1.0
230
-0.0000000000000002
  0
LINE
  5
39D
330
1F
100
AcDbEntity
  8
0
  6
Continuous
370
    13
100
AcDbLine
 10
2815.282897614439
 20
2475.753677170345
 30
-0.0000004391222319
 11
2905.282897614439
 21
2475.753677170345
 31
-0.0000004391222319
210
0.0000000000000001
220
1.0
230
-0.0000000000000002
  0
LINE
  5
39E
330
1F
100
AcDbEntity
  8
0
  6
Continuous
370
    13
100
AcDbLine
 10
2905.282897614439
 20
2475.253677170345
 30
-0.0000004391222319
 11
2815.282897614439
 21
2475.253677170345
 31
-0.0000004391222319
210
0.0000000000000001
220
1.0
230
-0.0000000000000002
  0
LINE
  5
39F
330
1F
100
AcDbEntity
  8
0
  6
Continuous
370
    13
100
AcDbLine
 10
2905.282897614439
 20
644.7536771703447
 30
-0.0000004391217772
 11
2815.282897614439
 21
644.7536771703447
 31
-0.0000004391217772
210
0.0000000000000001
220
1.0
230
-0.0000000000000002
  0
LINE
  5
3A0
330
1F
100
AcDbEntity
  8
0
  6
Continuous
370
    13
100
AcDbLine
 10
2821.175262505532
 20
629.7536771703447
 30
-0.0000004391217772
 11
2899.390532723353
 21
629.7536771703447
 31
-0.0000004391217772
210
0.0000000000000001
220
1.0
230
-0.0000000000000002
  0
LINE
  5
3A1
330
1F
100
AcDbEntity
  8
0
  6
Continuous
370
    13
100
AcDbLine
 10
2815.282897614439
 20
644.7536771703447
 30
-0.0000004391217772
 11
2905.282897614439
 21
644.7536771703447
 31
-0.0000004391217772
210
0.0000000000000001
220
1.0
230
-0.0000000000000002
  0
LINE
  5
3A2
330
1F
100
AcDbEntity
  8
0
  6
Continuous
370
    13
100
AcDbLine
 10
2905.282897614439
 20
645.2536771703448
 30
-0.0000004391217772
 11
2815.282897614439
 21
645.2536771703448
 31
-0.0000004391217772
210
0.0000000000000001
220
1.0
230
-0.0000000000000002
  0
LINE
  5
3A3
330
1F
100
AcDbEntity
  8
0
  6
Continuous
370
    13
100
AcDbLine
 10
2814.282897614439
 20
1565.253677170345
 30
-0.0000004391220045
 11
2837.637069632468
 21
1565.253677170345
 31
-0.0000004391220045
210
0.0000000000000001
220
1.0
230
-0.0000000000000002
  0
LINE
  5
3A4
330
1F
100
AcDbEntity
  8
0
  6
Continuous
370
    13
100
AcDbLine
 10
2837.637069632468
 20
1555.253677170345
 30
-0.0000004391220045
 11
2814.282897614439
 21
1555.253677170345
 31
-0.0000004391220045
210
0.0000000000000001
220
1.0
230
-0.0000000000000002
  0
LINE
  5
3A5
330
1F
100
AcDbEntity
  8
0
  6
Continuous
370
    13
100
AcDbLine
 10
2837.637069632475
 20
1555.253677170345
 30
-0.0000004391220045
 11
2838.09149940721
 21
1555.253677170345
 31
-0.0000004391220045
210
0.0000000000000001
220
1.0
230
-0.0000000000000002
  0
SPLINE
  5
3A6
330
1F
100
AcDbEntity
  8
0
  6
Continuous
370
    13
100
AcDbSpline
210
0.0
220
0.0
230
1.0
 70
     8
 71
     3
 72
    22
 73
    18
 74
     0
 42
0.0000000001
 43
0.0000000001
 40
6.030662373476993
 40
6.030662373476993
 40
6.030662373476993
 40
6.030662373476993
 40
6.407353829202204
 40
6.407353829202204
 40
6.784045284927413
 40
6.784045284927413
 40
7.160736740652624
 40
7.160736740652624
 40
7.537428196377835
 40
7.537428196377835
 40
7.91426419263626
 40
7.91426419263626
 40
8.291100188894686
 40
8.291100188894686
 40
8.667936185153113
 40
8.667936185153113
 40
9.044772181411538
 40
9.044772181411538
 40
9.044772181411538
 40
9.044772181411538
 10
2839.399334626325
 20
1557.253677170345
 30
-0.0000004391220045
 10
2839.399334626325
 20
1557.128113351773
 30
-0.0000004391220045
 10
2839.388626593058
 20
1556.99826073673
 30
-0.0000004391220045
 10
2839.343548283506
 20
1556.739952006944
 30
-0.0000004391220045
 10
2839.309188064829
 20
1556.611493772837
 30
-0.0000004391220045
 10
2839.218409853188
 20
1556.365113952575
 30
-0.0000004391220045
 10
2839.161921249784
 20
1556.246996135312
 30
-0.0000004391220045
 10
2839.031559947218
 20
1556.028559593469
 30
-0.0000004391220045
 10
2838.957681756293
 20
1555.928247035608
 30
-0.0000004391220045
 10
2838.800465029666
 20
1555.750646113188
 30
-0.0000004391220045
 10
2838.711751603043
 20
1555.667301482604
 30
-0.0000004391220045
 10
2838.518976196517
 20
1555.520418464046
 30
-0.0000004391220045
 10
2838.414922116369
 20
1555.456870947909
 30
-0.0000004391220045
 10
2838.198382719632
 20
1555.354833861783
 30
-0.0000004391220045
 10
2838.085726120802
 20
1555.31626263773
 30
-0.0000004391220045
 10
2837.859738062727
 20
1555.265679032796
 30
-0.0000004391220045
 10
2837.746405487547
 20
1555.253677170345
 30
-0.0000004391220045
 10
2837.637069632475
 20
1555.253677170345
 30
-0.0000004391220045
  0
LINE
  5
3A7
330
1F
100
AcDbEntity
  8
0
  6
Continuous
370
    13
100
AcDbLine
 10
2839.399334626325
 20
1563.253677170345
 30
-0.0000004391220045
 11
2839.399334626325
 21
1557.253677170345
 31
-0.0000004391220045
210
0.0000000000000001
220
1.0
230
-0.0000000000000002
  0
LINE
  5
3A8
330
1F
100
AcDbEntity
  8
0
  6
Continuous
370
    13
100
AcDbLine
 10
2838.09149940721
 20
1565.253677170345
 30
-0.0000004391220045
 11
2837.637069632475
 21
1565.253677170345
 31
-0.0000004391220045
210
0.0000000000000001
220
1.0
230
-0.0000000000000002
  0
SPLINE
  5
3A9
330
1F
100
AcDbEntity
  8
0
  6
Continuous
370
    13
100
AcDbSpline
210
0.0
220
0.0
230
1.0
 70
     8
 71
     3
 72
    22
 73
    18
 74
     0
 42
0.0000000001
 43
0.0000000001
 40
9.047215022640344
 40
9.047215022640344
 40
9.047215022640344
 40
9.047215022640344
 40
9.424051018898769
 40
9.424051018898769
 40
9.800887015157195
 40
9.800887015157195
 40
10.17772301141562
 40
10.17772301141562
 40
10.55455900767404
 40
10.55455900767404
 40
10.93125046339926
 40
10.93125046339926
 40
11.30794191912446
 40
11.30794191912446
 40
11.68463337484968
 40
11.68463337484968
 40
12.06132483057489
 40
12.06132483057489
 40
12.06132483057489
 40
12.06132483057489
 10
2837.637069632475
 20
1565.253677170345
 30
-0.0000004391220045
 10
2837.746405487547
 20
1565.253677170345
 30
-0.0000004391220045
 10
2837.859738062727
 20
1565.241675307897
 30
-0.0000004391220045
 10
2838.085726120802
 20
1565.191091702959
 30
-0.0000004391220045
 10
2838.198382719632
 20
1565.15252047891
 30
-0.0000004391220045
 10
2838.414922116369
 20
1565.050483392784
 30
-0.0000004391220045
 10
2838.518976196517
 20
1564.986935876648
 30
-0.0000004391220045
 10
2838.711751603043
 20
1564.840052858089
 30
-0.0000004391220045
 10
2838.800465029666
 20
1564.756708227505
 30
-0.0000004391220045
 10
2838.957681756293
 20
1564.579107305085
 30
-0.0000004391220045
 10
2839.031559947218
 20
1564.478794747221
 30
-0.0000004391220045
 10
2839.161921249784
 20
1564.260358205381
 30
-0.0000004391220045
 10
2839.218409853188
 20
1564.142240388115
 30
-0.0000004391220045
 10
2839.309188064829
 20
1563.895860567856
 30
-0.0000004391220045
 10
2839.343548283506
 20
1563.767402333749
 30
-0.0000004391220045
 10
2839.388626593058
 20
1563.509093603963
 30
-0.0000004391220045
 10
2839.399334626325
 20
1563.37924098892
 30
-0.0000004391220045
 10
2839.399334626325
 20
1563.253677170345
 30
-0.0000004391220045
  0
SPLINE
  5
3AA
330
1F
100
AcDbEntity
  8
0
  6
Continuous
370
    13
100
AcDbSpline
210
0.0
220
0.0
230
1.0
 70
     8
 71
     3
 72
    22
 73
    18
 74
     0
 42
0.0000000001
 43
0.0000000001
 40
3.01669060560038
 40
3.01669060560038
 40
3.01669060560038
 40
3.01669060560038
 40
3.393533317942416
 40
3.393533317942416
 40
3.770376030284452
 40
3.770376030284452
 40
4.147218742626487
 40
4.147218742626487
 40
4.524061454968522
 40
4.524061454968522
 40
4.900753124545087
 40
4.900753124545087
 40
5.277444794121652
 40
5.277444794121652
 40
5.654136463698216
 40
5.654136463698216
 40
6.030828133274781
 40
6.030828133274781
 40
6.030828133274781
 40
6.030828133274781
 10
2838.09149940721
 20
1555.253677170345
 30
-0.0000004391220045
 10
2838.200777353197
 20
1555.253677170345
 30
-0.0000004391220045
 10
2838.314056374614
 20
1555.265678449024
 30
-0.0000004391220045
 10
2838.53995077967
 20
1555.316260756015
 30
-0.0000004391220045
 10
2838.652567259853
 20
1555.354831279473
 30
-0.0000004391220045
 10
2838.869040620107
 20
1555.456867620046
 30
-0.0000004391220045
 10
2838.973068716108
 20
1555.520415108446
 30
-0.0000004391220045
 10
2839.165804043268
 20
1555.667299080887
 30
-0.0000004391220045
 10
2839.254503319093
 20
1555.750644692114
 30
-0.0000004391220045
 10
2839.411698382117
 20
1555.92824692422
 30
-0.0000004391220045
 10
2839.485568487116
 20
1556.028559399902
 30
-0.0000004391220045
 10
2839.61591881374
 20
1556.246995847384
 30
-0.0000004391220045
 10
2839.67240446761
 20
1556.365113651798
 30
-0.0000004391220045
 10
2839.763179319963
 20
1556.611493494481
 30
-0.0000004391220045
 10
2839.797539089342
 20
1556.73995176495
 30
-0.0000004391220045
 10
2839.842617025804
 20
1556.998260598287
 30
-0.0000004391220045
 10
2839.853325126061
 20
1557.128113280487
 30
-0.0000004391220045
 10
2839.853325126061
 20
1557.253677170345
 30
-0.0000004391220045
  0
LINE
  5
3AB
330
1F
100
AcDbEntity
  8
0
  6
Continuous
370
    13
100
AcDbLine
 10
2839.853325126061
 20
1557.253677170345
 30
-0.0000004391220045
 11
2839.853325126061
 21
1563.253677170345
 31
-0.0000004391220045
210
0.0000000000000001
220
1.0
230
-0.0000000000000002
  0
SPLINE
  5
3AC
330
1F
100
AcDbEntity
  8
0
  6
Continuous
370
    13
100
AcDbSpline
210
0.0
220
0.0
230
1.0
 70
     8
 71
     3
 72
    22
 73
    18
 74
     0
 42
0.0000000001
 43
0.0000000001
 40
12.06165626654956
 40
12.06165626654956
 40
12.06165626654956
 40
12.06165626654956
 40
12.43834793612612
 40
12.43834793612612
 40
12.81503960570269
 40
12.81503960570269
 40
13.19173127527925
 40
13.19173127527925
 40
13.56842294485582
 40
13.56842294485582
 40
13.94526565719785
 40
13.94526565719785
 40
14.32210836953989
 40
14.32210836953989
 40
14.69895108188192
 40
14.69895108188192
 40
15.07579379422396
 40
15.07579379422396
 40
15.07579379422396
 40
15.07579379422396
 10
2839.853325126061
 20
1563.253677170345
 30
-0.0000004391220045
 10
2839.853325126061
 20
1563.379241060207
 30
-0.0000004391220045
 10
2839.842617025804
 20
1563.509093742406
 30
-0.0000004391220045
 10
2839.797539089342
 20
1563.76740257574
 30
-0.0000004391220045
 10
2839.763179319963
 20
1563.895860846208
 30
-0.0000004391220045
 10
2839.67240446761
 20
1564.142240688895
 30
-0.0000004391220045
 10
2839.61591881374
 20
1564.260358493309
 30
-0.0000004391220045
 10
2839.485568487116
 20
1564.47879494079
 30
-0.0000004391220045
 10
2839.411698382117
 20
1564.579107416473
 30
-0.0000004391220045
 10
2839.254503319093
 20
1564.756709648579
 30
-0.0000004391220045
 10
2839.165804043268
 20
1564.840055259806
 30
-0.0000004391220045
 10
2838.973068716108
 20
1564.986939232247
 30
-0.0000004391220045
 10
2838.869040620107
 20
1565.050486720643
 30
-0.0000004391220045
 10
2838.652567259853
 20
1565.15252306122
 30
-0.0000004391220045
 10
2838.53995077967
 20
1565.191093584678
 30
-0.0000004391220045
 10
2838.314056374614
 20
1565.241675891665
 30
-0.0000004391220045
 10
2838.200777353197
 20
1565.253677170345
 30
-0.0000004391220045
 10
2838.09149940721
 20
1565.253677170345
 30
-0.0000004391220045
  0
LINE
  5
3AD
330
1F
100
AcDbEntity
  8
0
  6
Continuous
370
    13
100
AcDbLine
 10
2840.03312445531
 20
1558.253677170345
 30
-0.0000004391220045
 11
2839.853325126061
 21
1558.253677170345
 31
-0.0000004391220045
210
0.0000000000000001
220
1.0
230
-0.0000000000000002
  0
LINE
  5
3AE
330
1F
100
AcDbEntity
  8
0
  6
Continuous
370
    13
100
AcDbLine
 10
2839.607822789711
 20
645.2536771703448
 30
-0.0000004391217772
 11
2815.282897614621
 21
645.2536771703448
 31
-0.0000004391217772
210
0.0000000000000001
220
1.0
230
-0.0000000000000002
  0
LINE
  5
3AF
330
1F
100
AcDbEntity
  8
0
  6
Continuous
370
    13
100
AcDbLine
 10
2840.03312445531
 20
645.2536771703448
 30
-0.0000004391217772
 11
2840.03312445531
 21
2475.253677170345
 31
-0.0000004391222319
210
0.0000000000000001
220
1.0
230
-0.0000000000000002
  0
LINE
  5
3B0
330
1F
100
AcDbEntity
  8
0
  6
Continuous
370
    13
100
AcDbLine
 10
2840.03312445531
 20
2475.253677170345
 30
-0.0000004391222319
 11
2905.282897614264
 21
2475.253677170345
 31
-0.0000004391222319
210
0.0000000000000001
220
1.0
230
-0.0000000000000002
  0
LINE
  5
3B1
330
1F
100
AcDbEntity
  8
0
  6
Continuous
370
    13
100
AcDbLine
 10
2905.282897614264
 20
645.2536771703448
 30
-0.0000004391217772
 11
2840.03312445531
 21
645.2536771703448
 31
-0.0000004391217772
210
0.0000000000000001
220
1.0
230
-0.0000000000000002
  0
LINE
  5
3B2
330
1F
100
AcDbEntity
  8
0
  6
Continuous
370
    13
100
AcDbLine
 10
2905.282897614264
 20
678.9786771703469
 30
-0.0000004391220045
 11
2904.163410088471
 21
678.9786771703469
 31
-0.0000004391220045
210
0.0000000000000001
220
1.0
230
-0.0000000000000002
  0
LINE
  5
3B3
330
1F
100
AcDbEntity
  8
0
  6
Continuous
370
    13
100
AcDbLine
 10
2903.162700552233
 20
682.6536771703461
 30
-0.0000004391220045
 11
2903.162700552233
 21
707.8536771703469
 31
-0.0000004391220045
210
0.0000000000000001
220
1.0
230
-0.0000000000000002
  0
SPLINE
  5
3B4
330
1F
100
AcDbEntity
  8
0
  6
Continuous
370
    13
100
AcDbSpline
210
0.0
220
0.0
230
1.0
 70
     8
 71
     3
 72
    22
 73
    18
 74
     0
 42
0.0000000001
 43
0.0000000001
 40
-5.635028458655654
 40
-5.635028458655654
 40
-5.635028458655654
 40
-5.635028458655654
 40
-4.924955114656615
 40
-4.924955114656615
 40
-4.214881770657576
 40
-4.214881770657576
 40
-3.504808426658541
 40
-3.504808426658541
 40
-2.794735082659503
 40
-2.794735082659503
 40
-2.096051311994628
 40
-2.096051311994628
 40
-1.397367541329749
 40
-1.397367541329749
 40
-0.698683770664875
 40
-0.698683770664875
 40
0.0
 40
0.0
 40
0.0
 40
0.0
 10
2904.163410088471
 20
678.9786771703469
 30
-0.0000004391220045
 10
2904.11094355806
 20
678.9786771703469
 30
-0.0000004391220045
 10
2904.054781138069
 20
679.0007605340028
 30
-0.0000004391220045
 10
2903.938941624963
 20
679.0936005106662
 30
-0.0000004391220045
 10
2903.879267664017
 20
679.1643313912094
 30
-0.0000004391220045
 10
2903.761052438009
 20
679.3514675428008
 30
-0.0000004391220045
 10
2903.702437767855
 20
679.4680065265451
 30
-0.0000004391220045
 10
2903.591045092822
 20
679.7378256067125
 30
-0.0000004391220045
 10
2903.538288488993
 20
679.8911284440868
 30
-0.0000004391220045
 10
2903.443644280875
 20
680.2163615974599
 30
-0.0000004391220045
 10
2903.398359554202
 20
680.3990465306809
 30
-0.0000004391220045
 10
2903.316991391971
 20
680.7980692968479
 30
-0.0000004391220045
 10
2903.280926379726
 20
681.0144018668428
 30
-0.0000004391220045
 10
2903.222290175416
 20
681.4669252932902
 30
-0.0000004391220045
 10
2903.199686146277
 20
681.7035116824184
 30
-0.0000004391220045
 10
2903.169885218662
 20
682.1804376754474
 30
-0.0000004391220045
 10
2903.162700552233
 20
682.4207825801234
 30
-0.0000004391220045
 10
2903.162700552233
 20
682.6536771703461
 30
-0.0000004391220045
  0
LINE
  5
3B5
330
1F
100
AcDbEntity
  8
0
  6
Continuous
370
    13
100
AcDbLine
 10
2904.163410088471
 20
711.5286771703462
 30
-0.0000004391220045
 11
2905.282897614264
 21
711.5286771703462
 31
-0.0000004391220045
210
0.0000000000000001
220
1.0
230
-0.0000000000000002
  0
SPLINE
  5
3B6
330
1F
100
AcDbEntity
  8
0
  6
Continuous
370
    13
100
AcDbSpline
210
0.0
220
0.0
230
1.0
 70
     8
 71
     3
 72
    22
 73
    18
 74
     0
 42
0.0000000001
 43
0.0000000001
 40
0.0
 40
0.0
 40
0.0
 40
0.0
 40
0.6922350909565294
 40
0.6922350909565294
 40
1.384470181913058
 40
1.384470181913058
 40
2.076705272869587
 40
2.076705272869587
 40
2.768940363826117
 40
2.768940363826117
 40
3.485450034894487
 40
3.485450034894487
 40
4.201959705962856
 40
4.201959705962856
 40
4.918469377031226
 40
4.918469377031226
 40
5.634979048099596
 40
5.634979048099596
 40
5.634979048099596
 40
5.634979048099596
 10
2903.162700552233
 20
707.8536771703469
 30
-0.0000004391220045
 10
2903.162700552233
 20
708.0844222006629
 30
-0.0000004391220045
 10
2903.169753065465
 20
708.3226282463323
 30
-0.0000004391220045
 10
2903.199036444648
 20
708.7955614679734
 30
-0.0000004391220045
 10
2903.221255601429
 20
709.0302936905894
 30
-0.0000004391220045
 10
2903.278933563046
 20
709.479614453255
 30
-0.0000004391220045
 10
2903.314424186714
 20
709.6945899749147
 30
-0.0000004391220045
 10
2903.39454425352
 20
710.0915428551083
 30
-0.0000004391220045
 10
2903.439155705078
 20
710.2735154365322
 30
-0.0000004391220045
 10
2903.533313392634
 20
710.6010344222625
 30
-0.0000004391220045
 10
2903.586362321281
 20
710.7568237223452
 30
-0.0000004391220045
 10
2903.698493968304
 20
711.0310564598834
 30
-0.0000004391220045
 10
2903.757554585443
 20
711.1495234674361
 30
-0.0000004391220045
 10
2903.876732562757
 20
711.3397952603112
 30
-0.0000004391220045
 10
2903.936924858639
 20
711.4117379205922
 30
-0.0000004391220045
 10
2904.053794215784
 20
711.5061922592461
 30
-0.0000004391220045
 10
2904.110467984997
 20
711.5286771703462
 30
-0.0000004391220045
 10
2904.163410088471
 20
711.5286771703462
 30
-0.0000004391220045
  0
LINE
  5
3B7
330
1F
100
AcDbEntity
  8
0
  6
Continuous
370
    13
100
AcDbLine
 10
2907.282897614264
 20
710.7536771703447
 30
-0.0000004391220045
 11
2903.588435773652
 21
710.7536771703447
 31
-0.0000004391220045
210
0.0000000000000001
220
1.0
230
-0.0000000000000002
  0
LINE
  5
3B8
330
1F
100
AcDbEntity
  8
0
  6
Continuous
370
    13
100
AcDbLine
 10
2907.282897614264
 20
707.2536771703447
 30
-0.0000004391220045
 11
2907.282897614264
 21
710.7536771703447
 31
-0.0000004391220045
210
0.0000000000000001
220
1.0
230
-0.0000000000000002
  0
LINE
  5
3B9
330
1F
100
AcDbEntity
  8
0
  6
Continuous
370
    13
100
AcDbLine
 10
2907.282897614264
 20
683.2536771703447
 30
-0.0000004391220045
 11
2907.282897614264
 21
707.2536771703447
 31
-0.0000004391220045
210
0.0000000000000001
220
1.0
230
-0.0000000000000002
  0
LINE
  5
3BA
330
1F
100
AcDbEntity
  8
0
  6
Continuous
370
    13
100
AcDbLine
 10
2907.282897614264
 20
679.7536771703447
 30
-0.0000004391220045
 11
2907.282897614264
 21
683.2536771703447
 31
-0.0000004391220045
210
0.0000000000000001
220
1.0
230
-0.0000000000000002
  0
LINE
  5
3BB
330
1F
100
AcDbEntity
  8
0
  6
Continuous
370
    13
100
AcDbLine
 10
2903.588435773652
 20
679.7536771703447
 30
-0.0000004391220045
 11
2907.282897614264
 21
679.7536771703447
 31
-0.0000004391220045
210
0.0000000000000001
220
1.0
230
-0.0000000000000002
  0
LINE
  5
3BC
330
1F
100
AcDbEntity
  8
0
  6
Continuous
370
    13
100
AcDbLine
 10
2897.702897614444
 20
1460.253677050077
 30
-0.0000004391220045
 11
2912.702897614444
 21
1460.253677050077
 31
-0.0000004391220045
210
0.0000000000000001
220
1.0
230
-0.0000000000000002
  0
LINE
  5
3BD
330
1F
100
AcDbEntity
  8
0
  6
Continuous
370
    13
100
AcDbLine
 10
2912.702897614444
 20
1460.253677050077
 30
-0.0000004391220045
 11
2912.702897614444
 21
1660.253677050077
 31
-0.0000004391220045
210
0.0000000000000001
220
1.0
230
-0.0000000000000002
  0
LINE
  5
3BE
330
1F
100
AcDbEntity
  8
0
  6
Continuous
370
    13
100
AcDbLine
 10
2897.702897614444
 20
1660.253677050077
 30
-0.0000004391220045
 11
2897.702897614444
 21
1460.253677050077
 31
-0.0000004391220045
210
0.0000000000000001
220
1.0
230
-0.0000000000000002
  0
LINE
  5
3BF
330
1F
100
AcDbEntity
  8
0
  6
Continuous
370
    13
100
AcDbLine
 10
2897.702897614444
 20
1660.253677050077
 30
-0.0000004391220045
 11
2912.702897614444
 21
1660.253677050077
 31
-0.0000004391220045
210
0.0000000000000001
220
1.0
230
-0.0000000000000002
  0
CIRCLE
  5
3C0
330
1F
100
AcDbEntity
  8
0
  6
Continuous
370
    13
100
AcDbCircle
 10
-2907.202897614445
 20
1490.253677050077
 30
0.0000004391217308
 40
2.0
210
0.0
220
-0.0000000000000002
230
-1.0
  0
CIRCLE
  5
3C1
330
1F
100
AcDbEntity
  8
0
  6
Continuous
370
    13
100
AcDbCircle
 10
-2907.202897614445
 20
1630.253677050077
 30
0.0000004391217051
 40
2.0
210
0.0
220
-0.0000000000000002
230
-1.0
  0
LINE
  5
3C2
330
1F
100
AcDbEntity
  8
0
  6
Continuous
370
    13
100
AcDbLine
 10
2815.282897614621
 20
2475.253677170345
 30
-0.0000004391222319
 11
2815.282897614621
 21
1565.253677170345
 31
-0.0000004391220045
210
0.0000000000000001
220
1.0
230
-0.0000000000000002
  0
LINE
  5
3C3
330
1F
100
AcDbEntity
  8
0
  6
Continuous
370
    13
100
AcDbLine
 10
2816.19422189794
 20
2486.188688050075
 30
-0.0000004391222319
 11
2815.282897614439
 21
2475.753677170345
 31
-0.0000004391222319
210
0.0000000000000001
220
1.0
230
-0.0000000000000002
  0
LINE
  5
3C4
330
1F
100
AcDbEntity
  8
0
  6
Continuous
370
    13
100
AcDbLine
 10
2904.371573330945
 20
2486.188688050075
 30
-0.0000004391222319
 11
2905.282897614439
 21
2475.753677170345
 31
-0.0000004391222319
210
0.0000000000000001
220
1.0
230
-0.0000000000000002
  0
ARC
  5
3C5
330
1F
100
AcDbEntity
  8
0
  6
Continuous
370
    13
100
AcDbCircle
 10
-2821.175262505532
 20
2485.753677170345
 30
0.0000004391217753
 40
5.0
210
0.0
220
-0.0000000000000002
230
-1.0
100
AcDbArc
 50
4.991167720275138
 51
90.0
  0
ARC
  5
3C6
330
1F
100
AcDbEntity
  8
0
  6
Continuous
370
    13
100
AcDbCircle
 10
-2899.390532723353
 20
2485.753677170345
 30
0.0000004391217753
 40
5.0
210
0.0
220
-0.0000000000000002
230
-1.0
100
AcDbArc
 50
90.0
 51
175.0088322797248
  0
LINE
  5
3C7
330
1F
100
AcDbEntity
  8
0
  6
Continuous
370
    13
100
AcDbLine
 10
2905.282897614439
 20
2475.253677170345
 30
-0.0000004391222319
 11
2905.282897614439
 21
2475.753677170345
 31
-0.0000004391222319
210
0.0000000000000001
220
1.0
230
-0.0000000000000002
  0
LINE
  5
3C8
330
1F
100
AcDbEntity
  8
0
  6
Continuous
370
    13
100
AcDbLine
 10
2815.282897614439
 20
2475.253677170345
 30
-0.0000004391222319
 11
2815.282897614439
 21
2475.753677170345
 31
-0.0000004391222319
210
0.0000000000000001
220
1.0
230
-0.0000000000000002
  0
LINE
  5
3C9
330
1F
100
AcDbEntity
  8
0
  6
Continuous
370
    13
100
AcDbLine
 10
2904.371573330945
 20
634.3186662906149
 30
-0.0000004391217772
 11
2905.282897614439
 21
644.7536771703447
 31
-0.0000004391217772
210
0.0000000000000001
220
1.0
230
-0.0000000000000002
  0
LINE
  5
3CA
330
1F
100
AcDbEntity
  8
0
  6
Continuous
370
    13
100
AcDbLine
 10
2816.19422189794
 20
634.3186662906149
 30
-0.0000004391217772
 11
2815.282897614439
 21
644.7536771703447
 31
-0.0000004391217772
210
0.0000000000000001
220
1.0
230
-0.0000000000000002
  0
ARC
  5
3CB
330
1F
100
AcDbEntity
  8
0
  6
Continuous
370
    13
100
AcDbCircle
 10
-2821.175262505532
 20
634.7536771703447
 30
0.0000004391216606
 40
5.0
210
0.0
220
-0.0000000000000002
230
-1.0
100
AcDbArc
 50
270.0
 51
355.0088322797249
  0
ARC
  5
3CC
330
1F
100
AcDbEntity
  8
0
  6
Continuous
370
    13
100
AcDbCircle
 10
-2899.390532723353
 20
634.7536771703447
 30
0.0000004391216606
 40
5.0
210
0.0
220
-0.0000000000000002
230
-1.0
100
AcDbArc
 50
184.9911677202751
 51
270.0
  0
LINE
  5
3CD
330
1F
100
AcDbEntity
  8
0
  6
Continuous
370
    13
100
AcDbLine
 10
2905.282897614439
 20
644.7536771703447
 30
-0.0000004391217772
 11
2905.282897614439
 21
645.2536771703448
 31
-0.0000004391217772
210
0.0000000000000001
220
1.0
230
-0.0000000000000002
  0
LINE
  5
3CE
330
1F
100
AcDbEntity
  8
0
  6
Continuous
370
    13
100
AcDbLine
 10
2815.282897614439
 20
644.7536771703447
 30
-0.0000004391217772
 11
2815.282897614439
 21
645.2536771703448
 31
-0.0000004391217772
210
0.0000000000000001
220
1.0
230
-0.0000000000000002
  0
LINE
  5
3CF
330
1F
100
AcDbEntity
  8
0
  6
Continuous
370
    13
100
AcDbLine
 10
2814.282897614439
 20
1555.253677170345
 30
-0.0000004391220045
 11
2814.282897614439
 21
1565.253677170345
 31
-0.0000004391220045
210
0.0000000000000001
220
1.0
230
-0.0000000000000002
  0
LINE
  5
3D0
330
1F
100
AcDbEntity
  8
0
  6
Continuous
370
    13
100
AcDbLine
 10
2815.282897614621
 20
1555.253677170345
 30
-0.0000004391220045
 11
2815.282897614621
 21
645.2536771703448
 31
-0.0000004391217772
210
0.0000000000000001
220
1.0
230
-0.0000000000000002
  0
LINE
  5
3D1
330
1F
100
AcDbEntity
  8
0
  6
Continuous
370
    13
100
AcDbLine
 10
2905.282897614264
 20
711.5286771703462
 30
-0.0000004391220045
 11
2905.282897614264
 21
1460.253677050077
 31
-0.0000004391220045
210
0.0000000000000001
220
1.0
230
-0.0000000000000002
  0
LINE
  5
3D2
330
1F
100
AcDbEntity
  8
0
  6
Continuous
370
    13
100
AcDbLine
 10
2905.282897614264
 20
1660.253677050077
 30
-0.0000004391220045
 11
2905.282897614264
 21
2475.253677170345
 31
-0.0000004391222319
210
0.0000000000000001
220
1.0
230
-0.0000000000000002
  0
LINE
  5
3D3
330
1F
100
AcDbEntity
  8
0
  6
Continuous
370
    13
100
AcDbLine
 10
2905.282897614264
 20
645.2536771703448
 30
-0.0000004391217772
 11
2905.282897614264
 21
678.9786771703469
 31
-0.0000004391220045
210
0.0000000000000001
220
1.0
230
-0.0000000000000002
  0
DIMENSION
  5
3D4
330
1F
100
AcDbEntity
  8
0
370
     9
100
AcDbDimension
  2
*D14
 10
2193.983416763907
 20
629.7536771703448
 30
0.0000000000002274
 11
2161.483416763907
 21
1560.253677170345
 31
0.0000000000002274
 70
    32
 71
     5
 42
1861.0
  3
sunopo　1
100
AcDbAlignedDimension
 13
2306.230423656352
 23
2490.753677170345
 33
1596.430843560878
 14
2306.230423656352
 24
629.7536771703447
 34
1596.430843560878
 50
90.0
100
AcDbRotatedDimension
  0
DIMENSION
  5
3D5
330
1F
100
AcDbEntity
  8
0
370
     9
100
AcDbDimension
  2
*D15
 10
2390.338058765252
 20
2588.626296660868
 30
0.0000000000002274
 11
2345.338058765252
 21
2621.126296660868
 31
0.0000000000002274
 70
    32
 71
     5
 42
90.0
  3
sunopo　1
100
AcDbAlignedDimension
 13
2300.338058765252
 23
2475.753677170345
 33
1596.430843560878
 14
2390.338058765252
 24
2475.753677170345
 34
1596.430843560878
100
AcDbRotatedDimension
  0
DIMENSION
  5
3D6
330
1F
100
AcDbEntity
  8
0
370
     9
100
AcDbDimension
  2
*D16
 10
2193.983416763908
 20
2791.898227988111
 30
0.0000000000002274
 11
2193.983416763907
 21
2970.483000715385
 31
0.0000000000002274
 70
   160
 71
     5
 42
97.41999999999643
  3
sunopo　1
100
AcDbAlignedDimension
 13
2320.338058765251
 23
2889.318227988107
 33
1596.430843560878
 14
2345.338067128801
 24
2791.898227988111
 34
1596.430843560878
 50
90.0
100
AcDbRotatedDimension
1001
ACAD
1000
DSTYLE
1002
{
1070
   271
1070
     1
1002
}
  0
DIMENSION
  5
3D7
330
1F
100
AcDbEntity
  8
0
370
     9
100
AcDbDimension
  2
*D17
 10
2307.771312713063
 20
2812.124459783618
 30
1596.430843560878
 11
2449.988428730995
 21
2944.841673566607
 31
0.0000000000002274
 70
    35
 71
     5
 42
89.99999999999635
  3
sunopo　1
100
AcDbDiametricDimension
 15
2382.904804817445
 25
2861.671996192607
 35
1596.430843560878
 40
0.0
1001
ACAD
1000
DSTYLE
1002
{
1070
   288
1070
     1
1002
}
  0
LINE
  5
3D8
330
1F
100
AcDbEntity
  8
1
  6
CENTER
 62
     1
 48
200.0
370
     5
100
AcDbLine
 10
2899.143522080876
 20
1630.25367555219
 30
-0.0000004391217772
 11
2915.262273148013
 21
1630.253678547965
 31
-0.0000004391217772
  0
LINE
  5
3D9
102
{ACAD_REACTORS
330
3E7
102
}
330
1F
100
AcDbEntity
  8
1
  6
CENTER
 62
     1
 48
200.0
370
     5
100
AcDbLine
 10
2907.202899112331
 20
1622.194301516507
 30
-0.0000004391217772
 11
2907.202896116558
 21
1638.313052583647
 31
-0.0000004391217772
  0
LINE
  5
3DA
330
1F
100
AcDbEntity
  8
1
  6
CENTER
 62
     1
 48
200.0
370
     5
100
AcDbLine
 10
2899.143522080876
 20
1490.25367555219
 30
-0.0000004391220045
 11
2915.262273148013
 21
1490.253678547965
 31
-0.0000004391220045
  0
LINE
  5
3DB
330
1F
100
AcDbEntity
  8
1
  6
CENTER
 62
     1
 48
200.0
370
     5
100
AcDbLine
 10
2907.202899112331
 20
1482.194301516506
 30
-0.0000004391220045
 11
2907.202896116558
 21
1498.313052583647
 31
-0.0000004391220045
  0
LINE
  5
3DC
330
1F
100
AcDbEntity
  8
1
  6
CENTER
 62
     1
 48
200.0
370
     5
100
AcDbLine
 10
3404.118277184467
 20
1640.25367555219
 30
-0.0000004391220045
 11
3420.237028251604
 21
1640.253678547965
 31
-0.0000004391220045
  0
LINE
  5
3DD
330
1F
100
AcDbEntity
  8
1
  6
CENTER
 62
     1
 48
200.0
370
     5
100
AcDbLine
 10
3412.177654215922
 20
1632.194301516506
 30
-0.0000004391220045
 11
3412.177651220149
 21
1648.313052583647
 31
-0.0000004391220045
  0
LINE
  5
3DE
330
1F
100
AcDbEntity
  8
1
  6
CENTER
 62
     1
 48
200.0
370
     5
100
AcDbLine
 10
3368.118277184467
 20
1640.25367555219
 30
-0.0000004391220045
 11
3384.237028251604
 21
1640.253678547965
 31
-0.0000004391220045
  0
LINE
  5
3DF
330
1F
100
AcDbEntity
  8
1
  6
CENTER
 62
     1
 48
200.0
370
     5
100
AcDbLine
 10
3376.177654215922
 20
1632.194301516506
 30
-0.0000004391220045
 11
3376.177651220148
 21
1648.313052583647
 31
-0.0000004391220045
  0
LINE
  5
3E0
330
1F
100
AcDbEntity
  8
1
  6
CENTER
 62
     1
 48
200.0
370
     5
100
AcDbLine
 10
3404.118277184467
 20
1480.253675552186
 30
-0.0000004391220045
 11
3420.237028251604
 21
1480.253678547962
 31
-0.0000004391220045
  0
LINE
  5
3E1
330
1F
100
AcDbEntity
  8
1
  6
CENTER
 62
     1
 48
200.0
370
     5
100
AcDbLine
 10
3412.177654215922
 20
1472.194301516503
 30
-0.0000004391220045
 11
3412.177651220149
 21
1488.313052583644
 31
-0.0000004391220045
  0
LINE
  5
3E2
330
1F
100
AcDbEntity
  8
1
  6
CENTER
 62
     1
 48
200.0
370
     5
100
AcDbLine
 10
3368.118277184467
 20
1480.253675552186
 30
-0.0000004391220045
 11
3384.237028251604
 21
1480.253678547962
 31
-0.0000004391220045
  0
LINE
  5
3E3
330
1F
100
AcDbEntity
  8
1
  6
CENTER
 62
     1
 48
200.0
370
     5
100
AcDbLine
 10
3376.177654215922
 20
1472.194301516503
 30
-0.0000004391220045
 11
3376.177651220148
 21
1488.313052583644
 31
-0.0000004391220045
  0
DIMENSION
  5
3E4
330
1F
100
AcDbEntity
  8
0
370
     9
100
AcDbDimension
  2
*D18
 10
2912.702897614444
 20
2589.626296660868
 30
0.0000000000002274
 11
2993.867670341717
 21
2589.626296660868
 31
0.0000000000002274
 70
   160
 71
     5
 42
97.42000000000553
  3
sunopo　1
100
AcDbAlignedDimension
 13
2815.282897614439
 23
2475.753677170345
 33
1596.430843560878
 14
2912.702897614444
 24
1660.253677050077
 34
1596.430843560878
100
AcDbRotatedDimension
1001
ACAD
1000
DSTYLE
1002
{
1070
   271
1070
     1
1002
}
  0
DIMENSION
  5
3E5
102
{ACAD_XDICTIONARY
360
3E6
102
}
102
{ACAD_REACTORS
330
3E7
102
}
330
1F
100
AcDbEntity
  8
0
370
     9
100
AcDbDimension
  2
*D23
 10
2907.202896116558
 20
1671.411580084706
 30
0.0
 11
3005.742670341717
 21
1671.411580084706
 31
0.0
 70
   160
 71
     5
 42
5.500001497886842
  3
sunopo　1
100
AcDbAlignedDimension
 13
2912.702897614444
 23
1660.253677050077
 33
1596.430843560878
 14
2907.202896116558
 24
1638.313052583647
 34
-0.0000004391217772
100
AcDbRotatedDimension
  0
DIMENSION
  5
3E8
330
1F
100
AcDbEntity
  8
0
370
     9
100
AcDbDimension
  2
*D19
 10
2969.385187223308
 20
1490.253677050077
 30
0.0000000000002274
 11
3001.885187223307
 21
1560.253677050077
 31
0.0000000000002274
 70
    32
 71
     5
 42
140.0
  3
sunopo　1
100
AcDbAlignedDimension
 13
2907.202897614445
 23
1630.253677050077
 33
1596.430843560878
 14
2907.202897614445
 24
1490.253677050077
 34
1596.430843560878
 50
90.0
100
AcDbRotatedDimension
  0
LEADER
  5
3E9
330
1F
100
AcDbEntity
  8
0
370
     9
100
AcDbLeader
  3
sunopo　1
 73
     0
 40
46.93181818181819
 41
232.4715909090909
 76
     3
 10
2907.202897614445
 20
1490.253677050077
 30
-0.0000004391220045
 10
2990.142856559441
 20
1379.665980787836
 30
-0.0000004391220045
 10
3241.949266161233
 20
1379.665980787836
 30
-0.0000004391220045
340
3EA
213
113.6228450349008
223
-10.38561149474117
233
0.0
1001
ACAD
1000
DSTYLE
1002
{
1070
   147
1040
15.0
1070
    77
1070
     0
1002
}
  0
MTEXT
  5
3EA
102
{ACAD_REACTORS
330
3E9
102
}
330
1F
100
AcDbEntity
  8
0
370
     9
100
AcDbMText
 10
2996.582425179966
 20
1423.170640568669
 30
319.2861687121756
 40
28.0
 41
0.0
 71
     1
 72
     1
  1
\A1;4-M4タップ\P対面同位置
  7
\U+6837式 1
 73
     1
 44
1.0
1001
ACAD
1000
MTEXTBEGIN
1070
    73
1070
     1
1070
    44
1040
1.0
1070
    74
1070
     0
1000
MTEXTEND
  0
LEADER
  5
3EB
330
1F
100
AcDbEntity
  8
0
370
     9
100
AcDbLeader
  3
sunopo　1
 73
     0
 40
46.93181818181819
 41
232.4715909090909
 76
     3
 10
3412.177652718035
 20
1640.253677050077
 30
0.0
 10
3531.765846997429
 20
1734.135429418767
 30
0.0
 10
3735.972459287893
 20
1734.135429418767
 30
0.0
340
3EC
213
66.02304772357456
223
-10.38561149474117
233
0.0
1001
ACAD
1000
DSTYLE
1002
{
1070
   147
1040
15.0
1070
    77
1070
     0
1002
}
  0
MTEXT
  5
3EC
102
{ACAD_REACTORS
330
3EB
102
}
330
1F
100
AcDbEntity
  8
0
370
     9
100
AcDbMText
 10
3538.205415617953
 20
1777.640089199599
 30
319.2861691512976
 40
28.0
 41
0.0
 71
     1
 72
     1
  1
\A1;4-M4タップ
  7
\U+6837式 1
 73
     1
 44
1.0
1001
ACAD
1000
MTEXTBEGIN
1070
    73
1070
     1
1070
    44
1040
1.0
1070
    74
1070
     0
1000
MTEXTEND
  0
DIMENSION
  5
3ED
330
1F
100
AcDbEntity
  8
0
370
     9
100
AcDbDimension
  2
*D20
 10
3419.177652718035
 20
1712.912248629701
 30
0.0000000000002274
 11
3394.177652718035
 21
1712.912248629701
 31
0.0000000000002274
 70
   160
 71
     5
 42
50.0
  3
sunopo　1
100
AcDbAlignedDimension
 13
3369.177652718035
 23
1660.253677050077
 33
1596.430843560878
 14
3419.177652718035
 24
1660.253677050077
 34
1596.430843560878
100
AcDbRotatedDimension
  0
DIMENSION
  5
3EE
102
{ACAD_XDICTIONARY
360
3EF
102
}
102
{ACAD_REACTORS
330
3F0
102
}
330
1F
100
AcDbEntity
  8
0
370
     9
100
AcDbDimension
  2
*D24
 10
3304.398021984891
 20
1460.253677050073
 30
0.0
 11
3271.89802198489
 21
1560.253677050075
 31
0.0
 70
    32
 71
     5
 42
200.0000000000036
  3
sunopo　1
100
AcDbAlignedDimension
 13
3369.177652718035
 23
1660.253677050077
 33
1596.430843560878
 14
3369.177652718035
 24
1460.253677050073
 34
-0.0000004391220045
 50
90.0
100
AcDbRotatedDimension
  0
DIMENSION
  5
3F1
330
1F
100
AcDbEntity
  8
0
370
     9
100
AcDbDimension
  2
*D21
 10
3488.86756729051
 20
1480.253678547962
 30
0.0000000000002274
 11
3521.367567290509
 21
1560.253678547964
 31
0.0000000000002274
 70
    32
 71
     5
 42
160.0000000000036
  3
sunopo　1
100
AcDbAlignedDimension
 13
3420.237028251604
 23
1640.253678547965
 33
1596.430843560878
 14
3420.237028251604
 24
1480.253678547962
 34
1596.430843560878
 50
90.0
100
AcDbRotatedDimension
  0
DIMENSION
  5
3F2
330
1F
100
AcDbEntity
  8
0
370
     9
100
AcDbDimension
  2
*D22
 10
3412.177654215922
 20
1412.542157869238
 30
0.0000000000002274
 11
3499.947540579559
 21
1380.042157869238
 31
0.0000000000002274
 70
    32
 71
     5
 42
36.0
  3
sunopo　1
100
AcDbAlignedDimension
 13
3376.177654215922
 23
1472.194301516503
 33
1596.430843560878
 14
3412.177654215922
 24
1472.194301516503
 34
1596.430843560878
100
AcDbRotatedDimension
  0
LEADER
  5
3F3
330
1F
100
AcDbEntity
  8
0
370
     9
100
AcDbLeader
  3
sunopo　1
 73
     0
 40
38.5
 41
294.7954545454545
 76
     3
 10
2904.609241177635
 20
1589.381185947748
 30
0.0
 10
2992.980122060153
 20
1880.613254394765
 30
0.0
 10
3150.459501599298
 20
1880.613254394765
 30
0.0
340
3F4
213
189.2416850889567
223
-53.7272019541997
233
0.0
1001
ACAD
1000
DSTYLE
1002
{
1070
   147
1040
15.0
1070
    77
1070
     0
1002
}
  0
MTEXT
  5
3F4
102
{ACAD_REACTORS
330
3F3
102
}
330
1F
100
AcDbEntity
  8
0
370
     9
100
AcDbMText
 10
2976.217816510341
 20
1934.340456348965
 30
0.0
 40
28.0
 41
0.0
 71
     1
 72
     1
  1
\A1;背面固定プレート
  7
\U+6837式 1
 73
     1
 44
1.0
1001
ACAD
1000
MTEXTBEGIN
1070
    73
1070
     1
1070
    44
1040
1.0
1070
    74
1070
     0
1000
MTEXTEND
  0
LEADER
  5
3F5
330
1F
100
AcDbEntity
  8
0
370
     9
100
AcDbLeader
  3
sunopo　1
 40
46.93181818181819
 41
232.4715909090909
 76
     3
 10
3377.576129220384
 20
1606.783314668753
 30
0.0
 10
3252.033305329432
 20
1880.613254394765
 30
0.0
 10
3118.883326861049
 20
1880.613254394765
 30
0.0
213
113.6228450349008
223
-10.38561149474117
233
0.0
1001
ACAD
1000
DSTYLE
1002
{
1070
   147
1040
15.0
1070
    77
1070
     0
1002
}
  0
HATCH
  5
3F6
330
1F
100
AcDbEntity
  8
0
370
     5
100
AcDbHatch
 10
0.0
 20
0.0
 30
0.0
210
0.0
220
0.0
230
1.0
  2
HEX
 70
     0
 71
     0
 91
        1
 92
        1
 93
        4
 72
     1
 10
2305.312907393769
 20
2475.253677170345
 11
2385.363210136742
 21
2475.253677170345
 72
     1
 10
2385.363210136742
 20
2475.253677170345
 11
2385.363210136742
 21
1565.253677170345
 72
     1
 10
2385.363210136742
 20
1565.253677170345
 11
2305.312907393769
 21
1565.253677170345
 72
     1
 10
2305.312907393769
 20
1565.253677170345
 11
2305.312907393769
 21
2475.253677170345
 97
        0
 75
     0
 76
     1
 52
0.0
 41
1.0
 77
     0
 78
     3
 53
0.0
 43
-17404.94603700554
 44
-3900.994347425596
 45
0.0
 46
5.499259999999999
 79
     2
 49
3.174999999999999
 49
-6.349999999999999
 53
120.0
 43
-17404.94603700554
 44
-3900.994347425596
 45
-4.762498862015611
 46
-2.749629999999998
 79
     2
 49
3.174999999999997
 49
-6.349999999999995
 53
60.0
 43
-17401.77103700554
 44
-3900.994347425596
 45
-4.762498862015611
 46
2.74963
 79
     2
 49
3.174999999999999
 49
-6.349999999999999
 98
        1
 10
-17404.94603700554
 20
-3900.994347425596
1001
ACAD
1010
0.0
1020
0.0
1030
0.0
  0
HATCH
  5
3F7
330
1F
100
AcDbEntity
  8
0
370
     5
100
AcDbHatch
 10
0.0
 20
0.0
 30
-0.0000000000002274
210
0.0
220
0.0
230
1.0
  2
HEX
 70
     0
 71
     0
 91
        1
 92
        1
 93
        4
 72
     1
 10
2305.312907393769
 20
1555.253677170345
 11
2385.363210136742
 21
1555.253677170345
 72
     1
 10
2385.363210136742
 20
1555.253677170345
 11
2385.363210136742
 21
645.2536771703448
 72
     1
 10
2385.363210136742
 20
645.2536771703448
 11
2305.312907393769
 21
645.2536771703448
 72
     1
 10
2305.312907393769
 20
645.2536771703448
 11
2305.312907393769
 21
1555.253677170345
 97
        0
 75
     0
 76
     1
 52
0.0
 41
1.0
 77
     0
 78
     3
 53
0.0
 43
-17404.94603700554
 44
-4820.994347425597
 45
0.0
 46
5.499259999999999
 79
     2
 49
3.174999999999999
 49
-6.349999999999999
 53
120.0
 43
-17404.94603700554
 44
-4820.994347425597
 45
-4.762498862015611
 46
-2.749629999999998
 79
     2
 49
3.174999999999997
 49
-6.349999999999994
 53
60.0
 43
-17401.77103700554
 44
-4820.994347425597
 45
-4.762498862015611
 46
2.74963
 79
     2
 49
3.174999999999999
 49
-6.349999999999999
 98
        1
 10
-17404.94603700554
 20
-4820.994347425597
1001
ACAD
1010
0.0
1020
0.0
1030
0.0
  0
LINE
  5
3F8
330
1F
100
AcDbEntity
  8
1
  6
CENTER
 62
     1
 48
200.0
370
     5
100
AcDbLine
 10
2345.338395512865
 20
573.1747893208897
 30
-0.0000004391224593
 11
2345.337722017296
 21
2547.333585220758
 31
-0.0000004391224593
  0
LINE
  5
3F9
330
1F
100
AcDbEntity
  8
1
  6
CENTER
 62
     1
 48
200.0
370
     5
100
AcDbLine
 10
2264.744303429555
 20
1560.253662191463
 30
-0.0000004391224593
 11
2425.931814100955
 21
1560.253692149226
 31
-0.0000004391224593
  0
LINE
  5
3FA
330
1F
100
AcDbEntity
  8
1
  6
CENTER
 62
     1
 48
200.0
370
     5
100
AcDbLine
 10
3394.177989465641
 20
573.1747892006182
 30
-0.0000004391220045
 11
3394.177315970073
 21
2547.333585100486
 31
-0.0000004391220045
  0
LINE
  5
3FB
330
1F
100
AcDbEntity
  8
1
  6
CENTER
 62
     1
 48
200.0
370
     5
100
AcDbLine
 10
3313.583897382332
 20
1560.253662071192
 30
-0.0000004391220045
 11
3474.771408053732
 21
1560.253692028954
 31
-0.0000004391220045
  0
LINE
  5
3FC
330
1F
100
AcDbEntity
  8
1
  6
CENTER
 62
     1
 48
200.0
370
     5
100
AcDbLine
 10
2860.283234362226
 20
573.1747892006218
 30
-0.0000004391222319
 11
2860.282560866659
 21
2547.33358510049
 31
-0.0000004391222319
  0
LINE
  5
3FD
330
1F
100
AcDbEntity
  8
1
  6
CENTER
 62
     1
 48
200.0
370
     5
100
AcDbLine
 10
2779.689142278914
 20
1560.253662071196
 30
-0.0000004391222319
 11
2940.876652950317
 21
1560.253692028958
 31
-0.0000004391222319
  0
LINE
  5
3FE
330
1F
100
AcDbEntity
  8
1
  6
CENTER
 62
     1
 48
200.0
370
     5
100
AcDbLine
 10
2264.744303429548
 20
2836.898213009228
 30
-0.0000004391222319
 11
2425.931814100951
 21
2836.89824296699
 31
-0.0000004391222319
  0
LINE
  5
3FF
330
1F
100
AcDbEntity
  8
1
  6
CENTER
 62
     1
 48
200.0
370
     5
100
AcDbLine
 10
2345.338073744131
 20
2756.304472652407
 30
-0.0000004391222319
 11
2345.338043786372
 21
2917.491983323811
 31
-0.0000004391222319
  0
HATCH
  5
400
330
1F
100
AcDbEntity
  8
0
370
     5
100
AcDbHatch
 10
0.0
 20
0.0
 30
0.0
210
0.0
220
0.0
230
1.0
  2
HEX
 70
     0
 71
     0
 91
        1
 92
        1
 93
       74
 72
     1
 10
2838.09149940717
 20
1555.253677170345
 11
2815.282897614621
 21
1555.253677170345
 72
     1
 10
2815.282897614621
 20
1555.253677170345
 11
2815.282897614621
 21
645.2536771703448
 72
     1
 10
2815.282897614621
 20
645.2536771703448
 11
2840.03312445531
 21
645.2536771703448
 72
     1
 10
2840.03312445531
 20
645.2536771703448
 11
2840.03312445531
 21
2475.253677170345
 72
     1
 10
2840.03312445531
 20
2475.253677170345
 11
2815.282897614621
 21
2475.253677170345
 72
     1
 10
2815.282897614621
 20
2475.253677170345
 11
2815.282897614621
 21
1565.253677170345
 72
     1
 10
2815.282897614621
 20
1565.253677170345
 11
2838.091499407224
 21
1565.253677170345
 72
     1
 10
2838.091499407224
 20
1565.253677170345
 11
2838.171601796542
 21
1565.251543742633
 72
     1
 10
2838.171601796542
 20
1565.251543742633
 11
2838.252744302148
 21
1565.245070068325
 72
     1
 10
2838.252744302148
 20
1565.245070068325
 11
2838.334556758132
 21
1565.234146060662
 72
     1
 10
2838.334556758132
 20
1565.234146060662
 11
2838.416668998683
 21
1565.218661632885
 72
     1
 10
2838.416668998683
 20
1565.218661632885
 11
2838.498713705144
 21
1565.198528280892
 72
     1
 10
2838.498713705144
 20
1565.198528280892
 11
2838.580339451958
 21
1565.173776418414
 72
     1
 10
2838.580339451958
 20
1565.173776418414
 11
2838.661200315085
 21
1565.144477070024
 72
     1
 10
2838.661200315085
 20
1565.144477070025
 11
2838.740950375568
 21
1565.1107012911
 72
     1
 10
2838.740950375568
 20
1565.110701291099
 11
2838.81926417691
 21
1565.072522835865
 72
     1
 10
2838.81926417691
 20
1565.072522835865
 11
2838.895872093964
 21
1565.030097870713
 72
     1
 10
2838.895872093964
 20
1565.030097870712
 11
2838.970481005586
 21
1564.983650171681
 72
     1
 10
2838.970481005586
 20
1564.983650171681
 11
2839.042796014864
 21
1564.933404835667
 72
     1
 10
2839.042796014864
 20
1564.933404835668
 11
2839.112525234531
 21
1564.879592503511
 72
     1
 10
2839.112525234531
 20
1564.879592503511
 11
2839.179423950381
 21
1564.822526604712
 72
     1
 10
2839.179423950381
 20
1564.822526604712
 11
2839.243284631064
 21
1564.762584024118
 72
     1
 10
2839.243284631064
 20
1564.762584024119
 11
2839.303900737281
 21
1564.700143250909
 72
     1
 10
2839.303900737281
 20
1564.700143250909
 11
2839.361296492263
 21
1564.635315925325
 72
     1
 10
2839.361296492263
 20
1564.635315925324
 11
2839.416618323908
 21
1564.566800542327
 72
     1
 10
2839.416618323908
 20
1564.566800542328
 11
2839.469768140419
 21
1564.494553996102
 72
     1
 10
2839.469768140419
 20
1564.494553996102
 11
2839.520405235615
 21
1564.418800678462
 72
     1
 10
2839.520405235615
 20
1564.418800678462
 11
2839.56819019628
 21
1564.339766019412
 72
     1
 10
2839.56819019628
 20
1564.339766019412
 11
2839.612838277599
 21
1564.257717725396
 72
     1
 10
2839.612838277599
 20
1564.257717725396
 11
2839.654138283125
 21
1564.172979363773
 72
     1
 10
2839.654138283125
 20
1564.172979363773
 11
2839.691884184596
 21
1564.085878314234
 72
     1
 10
2839.691884184596
 20
1564.085878314233
 11
2839.725871074433
 21
1563.9967399841
 72
     1
 10
2839.725871074433
 20
1563.9967399841
 11
2839.755953764875
 21
1563.905864385918
 72
     1
 10
2839.755953764875
 20
1563.905864385918
 11
2839.782061666678
 21
1563.813618536701
 72
     1
 10
2839.782061666678
 20
1563.813618536701
 11
2839.804126938723
 21
1563.720393516917
 72
     1
 10
2839.804126938723
 20
1563.720393516917
 11
2839.822081764794
 21
1563.626580412594
 72
     1
 10
2839.822081764794
 20
1563.626580412595
 11
2839.835894788177
 21
1563.53257821686
 72
     1
 10
2839.835894788177
 20
1563.53257821686
 11
2839.845642332699
 21
1563.438809234779
 72
     1
 10
2839.845642332699
 20
1563.438809234779
 11
2839.851420433586
 21
1563.345700031065
 72
     1
 10
2839.851420433586
 20
1563.345700031064
 11
2839.853325126061
 21
1563.253677170187
 72
     1
 10
2839.853325126061
 20
1563.253677170188
 11
2839.853325126061
 21
1557.253677170402
 72
     1
 10
2839.853325126061
 20
1557.253677170401
 11
2839.851420433586
 21
1557.161654309637
 72
     1
 10
2839.851420433586
 20
1557.161654309638
 11
2839.845642332695
 21
1557.068545105935
 72
     1
 10
2839.845642332695
 20
1557.068545105934
 11
2839.83589478818
 21
1556.974776123854
 72
     1
 10
2839.83589478818
 20
1556.974776123855
 11
2839.822081764805
 21
1556.880773928121
 72
     1
 10
2839.822081764805
 20
1556.88077392812
 11
2839.804126938719
 21
1556.786960823705
 72
     1
 10
2839.804126938719
 20
1556.786960823705
 11
2839.782061666655
 21
1556.693735803923
 72
     1
 10
2839.782061666655
 20
1556.693735803924
 11
2839.75595376489
 21
1556.601489954825
 72
     1
 10
2839.75595376489
 20
1556.601489954824
 11
2839.725871074444
 21
1556.510614356657
 72
     1
 10
2839.725871074444
 20
1556.510614356657
 11
2839.691884184622
 21
1556.421476026553
 72
     1
 10
2839.691884184622
 20
1556.421476026554
 11
2839.654138283107
 21
1556.334374976908
 72
     1
 10
2839.654138283107
 20
1556.334374976908
 11
2839.612838277638
 21
1556.249636615285
 72
     1
 10
2839.612838277638
 20
1556.249636615286
 11
2839.568190196323
 21
1556.167588321402
 72
     1
 10
2839.568190196323
 20
1556.167588321402
 11
2839.52040523564
 21
1556.088553662268
 72
     1
 10
2839.52040523564
 20
1556.088553662268
 11
2839.46976814047
 21
1556.012800344584
 72
     1
 10
2839.46976814047
 20
1556.012800344584
 11
2839.416618323861
 21
1555.940553798346
 72
     1
 10
2839.416618323861
 20
1555.940553798345
 11
2839.36129649227
 21
1555.872038415379
 72
     1
 10
2839.36129649227
 20
1555.87203841538
 11
2839.303900737186
 21
1555.807211089796
 72
     1
 10
2839.303900737186
 20
1555.807211089795
 11
2839.243284631089
 21
1555.744770316544
 72
     1
 10
2839.243284631089
 20
1555.744770316545
 11
2839.179423950352
 21
1555.684827735949
 72
     1
 10
2839.179423950352
 20
1555.684827735949
 11
2839.112525234535
 21
1555.627761837219
 72
     1
 10
2839.112525234535
 20
1555.627761837218
 11
2839.042796014883
 21
1555.573949505036
 72
     1
 10
2839.042796014883
 20
1555.573949505036
 11
2838.97048100555
 21
1555.523704168961
 72
     1
 10
2838.97048100555
 20
1555.523704168961
 11
2838.895872093971
 21
1555.47725646999
 72
     1
 10
2838.895872093971
 20
1555.47725646999
 11
2838.8192641769
 21
1555.434831504846
 72
     1
 10
2838.8192641769
 20
1555.434831504846
 11
2838.740950375633
 21
1555.396653049606
 72
     1
 10
2838.740950375633
 20
1555.396653049607
 11
2838.661200315078
 21
1555.362877270664
 72
     1
 10
2838.661200315078
 20
1555.362877270664
 11
2838.580339451948
 21
1555.333577922267
 72
     1
 10
2838.580339451948
 20
1555.333577922266
 11
2838.49871370517
 21
1555.308826059795
 72
     1
 10
2838.49871370517
 20
1555.308826059795
 11
2838.416668998675
 21
1555.288692707808
 72
     1
 10
2838.416668998675
 20
1555.288692707808
 11
2838.33455675814
 21
1555.273208280029
 72
     1
 10
2838.33455675814
 20
1555.273208280028
 11
2838.252744302155
 21
1555.262284272365
 72
     1
 10
2838.252744302155
 20
1555.262284272366
 11
2838.171601796539
 21
1555.255810598057
 72
     1
 10
2838.171601796539
 20
1555.255810598056
 11
2838.09149940717
 21
1555.253677170345
 97
        0
 75
     0
 76
     1
 52
0.0
 41
1.0
 77
     0
 78
     3
 53
0.0
 43
-17404.94603700554
 44
-3900.994347425596
 45
0.0
 46
5.499259999999999
 79
     2
 49
3.174999999999999
 49
-6.349999999999999
 53
120.0
 43
-17404.94603700554
 44
-3900.994347425596
 45
-4.762498862015611
 46
-2.749629999999998
 79
     2
 49
3.174999999999997
 49
-6.349999999999995
 53
60.0
 43
-17401.77103700554
 44
-3900.994347425596
 45
-4.762498862015611
 46
2.74963
 79
     2
 49
3.174999999999999
 49
-6.349999999999999
 98
        1
 10
-17404.94603700554
 20
-3900.994347425596
1001
ACAD
1010
0.0
1020
0.0
1030
0.0
  0
LEADER
  5
401
330
1F
100
AcDbEntity
  8
0
370
     9
100
AcDbLeader
  3
sunopo　1
 73
     0
 40
87.5530303030303
 41
181.5227272727273
 76
     3
 10
2907.282897614264
 20
695.2536771703448
 30
0.0
 10
3002.737514260678
 20
833.7441606358673
 30
0.0
 10
3197.738306847526
 20
833.7441606358673
 30
0.0
340
402
213
196.5227272727279
223
-46.45120506128296
233
0.0
1001
ACAD
1000
DSTYLE
1002
{
1070
   147
1040
15.0
1070
    77
1070
     0
1002
}
  0
MTEXT
  5
402
102
{ACAD_REACTORS
330
401
102
}
330
1F
100
AcDbEntity
  8
0
370
     9
100
AcDbMText
 10
3016.215579574798
 20
880.1953656971504
 30
0.0
 40
28.0
 41
0.0
 71
     1
 72
     1
  1
\A1;入力端子\P4Pスピコン
  7
\U+6837式 1
 73
     1
 44
1.0
1001
ACAD
1000
MTEXTBEGIN
1070
    73
1070
     1
1070
    44
1040
1.0
1070
    74
1070
     0
1000
MTEXTEND
  0
LEADER
  5
403
330
1F
100
AcDbEntity
  8
0
370
     9
100
AcDbLeader
  3
sunopo　1
 40
46.93181818181819
 41
232.4715909090909
 76
     3
 10
3394.177947817728
 20
695.2536771703448
 30
0.0
 10
3218.868171552009
 20
833.7441606358673
 30
0.0
 10
3118.883326861049
 20
833.7441606358673
 30
0.0
213
113.6228450349008
223
-10.38561149474117
233
0.0
1001
ACAD
1000
DSTYLE
1002
{
1070
   147
1040
15.0
1070
    77
1070
     0
1002
}
  0
HATCH
  5
404
330
1F
100
AcDbEntity
  8
0
370
     5
100
AcDbHatch
 10
0.0
 20
0.0
 30
0.0
210
0.0
220
0.0
230
1.0
  2
HEX
 70
     0
 71
     1
 91
        1
 92
       33
 93
        6
 72
     3
 10
4028.8111142444
 20
2855.561063109833
 11
-56.24999999977445
 21
0.0000000000764798
 40
0.2898359481302151
 50
0.0000000000778954
 51
143.9769001921796
 73
     1
 72
     1
 10
3972.561114244626
 20
2855.561063109833
 11
3972.561114244634
 21
1766.886724824174
 72
     1
 10
4049.638172286444
 20
2840.41648678485
 11
4049.638172286444
 21
1750.27695186259
 72
     1
 10
4048.709162387238
 20
1751.094231318967
 11
4049.638172286444
 21
1750.27695186259
 72
     4
 94
        3
 73
     0
 74
     0
 95
       14
 96
       10
 40
13.76145653033968
 40
13.76145653033968
 40
13.76145653033968
 40
13.76145653033968
 40
13.94526565719785
 40
13.94526565719785
 40
14.32210836953989
 40
14.32210836953989
 40
14.69895108188192
 40
14.69895108188192
 40
15.07579379422396
 40
15.07579379422396
 40
15.07579379422396
 40
15.07579379422396
 10
4048.709135850191
 20
1751.094195740442
 10
4048.652133455933
 20
1751.135825631288
 10
4048.592261688148
 20
1751.174967828703
 10
4048.401945628355
 20
1751.28503843058
 10
4048.26342383136
 20
1751.3461922831
 10
4047.974027235858
 20
1751.437610018448
 10
4047.822919442883
 20
1751.467948410092
 10
4047.518590623808
 20
1751.497071615547
 10
4047.365366571726
 20
1751.495844104627
 10
4047.21699265132
 20
1751.480952717609
 72
     3
 10
4028.811114244255
 20
1766.886724824125
 11
56.24999999977494
 21
-0.0000000000000011
 40
0.2898359481293596
 50
179.9999999999501
 51
320.0705729999535
 73
     1
 97
        6
330
405
330
42C
330
42B
330
438
330
418
330
419
 75
     0
 76
     1
 52
0.0
 41
1.0
 77
     0
 78
     3
 53
0.0
 43
-17149.81460903057
 44
-3900.994347425596
 45
0.0
 46
5.499259999999999
 79
     2
 49
3.174999999999999
 49
-6.349999999999999
 53
120.0
 43
-17149.81460903057
 44
-3900.994347425596
 45
-4.762498862015611
 46
-2.749629999999998
 79
     2
 49
3.174999999999998
 49
-6.349999999999996
 53
60.0
 43
-17146.63960903057
 44
-3900.994347425596
 45
-4.762498862015611
 46
2.74963
 79
     2
 49
3.174999999999999
 49
-6.349999999999999
 98
        1
 10
-17149.81460903057
 20
-3900.994347425596
1001
ACAD
1010
0.0
1020
0.0
1030
0.0
  0
ELLIPSE
  5
405
102
{ACAD_REACTORS
330
404
102
}
330
1F
100
AcDbEntity
  8
0
  6
Continuous
370
    13
100
AcDbEllipse
 10
4028.8111142444
 20
2855.561063109833
 30
-0.0000004391239729
 11
-56.24999999977445
 21
0.0000000000764798
 31
-0.0000000000000025
210
0.0
220
0.0000000000000002
230
1.0
 40
0.2898359481302151
 41
0.0000000000046907
 42
1.950083942920172
  0
ELLIPSE
  5
406
330
1F
100
AcDbEntity
  8
0
  6
Continuous
370
    13
100
AcDbEllipse
 10
4028.8111142444
 20
2856.159235823177
 30
-0.0000004391215571
 11
-56.25
 21
-0.0000000000000016
 31
0.0000000000000062
210
0.0000000000000001
220
0.0000000000000002
230
1.0
 40
0.2898359481293595
 41
6.256734657224523
 42
7.132238765884717
  0
ELLIPSE
  5
407
330
1F
100
AcDbEntity
  8
0
  6
Continuous
370
    13
100
AcDbEllipse
 10
4028.8111142444
 20
2856.159235823177
 30
-0.0000004391215571
 11
-56.25
 21
-0.0000000000000016
 31
0.0000000000000062
210
0.0000000000000001
220
0.0000000000000002
230
1.0
 40
0.2898359481293595
 41
0.8490534587051316
 42
3.168043303544889
  0
ELLIPSE
  5
408
330
1F
100
AcDbEntity
  8
0
  6
Continuous
370
    13
100
AcDbEllipse
 10
4028.8111142444
 20
2856.159235823177
 30
-0.0000004391215571
 11
56.25
 21
0.0000000000000016
 31
-0.0000000000000062
210
0.0000000000000001
220
0.0000000000000002
230
1.0
 40
0.2898359481293595
 41
3.990646112294924
 42
6.309635957134682
  0
ELLIPSE
  5
409
330
1F
100
AcDbEntity
  8
0
  6
Continuous
370
    13
100
AcDbEllipse
 10
4028.8111142444
 20
2856.159235823177
 30
-0.0000004391215571
 11
56.25
 21
0.0000000000000016
 31
-0.0000000000000062
210
0.0000000000000001
220
0.0000000000000002
230
1.0
 40
0.2898359481293595
 41
3.11514200363473
 42
3.990646112294924
  0
ELLIPSE
  5
40A
330
1F
100
AcDbEntity
  8
0
  6
Continuous
370
    13
100
AcDbEllipse
 10
4028.8111142444
 20
2855.561063109833
 30
-0.0000004391239729
 11
-56.25
 21
-0.0000000000000016
 31
0.0000000000000062
210
0.0000000000000001
220
0.0000000000000002
230
1.0
 40
0.2898359481293595
 41
-0.0000000000000116
 42
0.8490534587051316
  0
ELLIPSE
  5
40B
330
1F
100
AcDbEntity
  8
0
  6
Continuous
370
    13
100
AcDbEllipse
 10
4028.8111142444
 20
665.6507595583001
 30
-0.0000004391224097
 11
-56.25
 21
-0.0000000000000016
 31
0.0000000000000062
210
0.0000000000000001
220
0.0000000000000002
230
1.0
 40
0.2898359481293595
 41
-0.0000000000000116
 42
0.8490534587051316
  0
ELLIPSE
  5
40C
330
1F
100
AcDbEntity
  8
0
  6
Continuous
370
    13
100
AcDbEllipse
 10
4028.8111142444
 20
665.6507595583001
 30
-0.0000004391224097
 11
-56.25
 21
-0.0000000000000016
 31
0.0000000000000062
210
0.0000000000000001
220
0.0000000000000002
230
1.0
 40
0.2898359481293595
 41
0.8490534587051316
 42
3.141592653589781
  0
ELLIPSE
  5
40D
330
1F
100
AcDbEntity
  8
0
  6
Continuous
370
    13
100
AcDbEllipse
 10
4028.8111142444
 20
665.6507595583001
 30
-0.0000004391224097
 11
56.25
 21
0.0000000000000016
 31
-0.0000000000000062
210
0.0000000000000001
220
0.0000000000000002
230
1.0
 40
0.2898359481293595
 41
3.990646112294924
 42
6.283185307179574
  0
ELLIPSE
  5
40E
330
1F
100
AcDbEntity
  8
0
  6
Continuous
370
    13
100
AcDbEllipse
 10
4028.8111142444
 20
665.6507595583001
 30
-0.0000004391224097
 11
56.25
 21
0.0000000000000016
 31
-0.0000000000000062
210
0.0000000000000001
220
0.0000000000000002
230
1.0
 40
0.2898359481293595
 41
3.141592653589781
 42
3.990646112294924
  0
ELLIPSE
  5
40F
330
1F
100
AcDbEntity
  8
0
  6
Continuous
370
    13
100
AcDbEllipse
 10
4028.8111142444
 20
666.2489322716404
 30
-0.0000004391198518
 11
-56.25
 21
-0.0000000000000016
 31
0.0000000000000062
210
0.0000000000000001
220
0.0000000000000002
230
1.0
 40
0.2898359481293595
 41
-0.0000000000000116
 42
0.8490534587051316
  0
ELLIPSE
  5
410
330
1F
100
AcDbEntity
  8
0
  6
Continuous
370
    13
100
AcDbEllipse
 10
4028.8111142444
 20
666.2489322716404
 30
-0.0000004391198518
 11
-56.25
 21
-0.0000000000000016
 31
0.0000000000000062
210
0.0000000000000001
220
0.0000000000000002
230
1.0
 40
0.2898359481293595
 41
0.8490534587051316
 42
3.141592653589781
  0
ELLIPSE
  5
411
330
1F
100
AcDbEntity
  8
0
  6
Continuous
370
    13
100
AcDbEllipse
 10
4028.811114244255
 20
1766.886724824125
 30
-0.0000004391187149
 11
57.49999999977493
 21
0.0000000000000058
 31
-0.0000000000000051
210
0.0000000000000001
220
0.0000000000000002
230
1.0
 40
0.2898359481293596
 41
2.934580654328779
 42
5.046711570261047
  0
HATCH
  5
412
330
1F
100
AcDbEntity
  8
0
370
     5
100
AcDbHatch
 10
0.0
 20
0.0
 30
0.0
210
0.0
220
0.0
230
1.0
  2
HEX
 70
     0
 71
     1
 91
        1
 92
       33
 93
        6
 72
     3
 10
4028.811114244255
 20
1754.923270557248
 11
-57.49999999977493
 21
-0.0000000000000058
 40
0.2898359481293595
 50
-0.0000000000007564
 51
140.1586450399328
 73
     1
 72
     4
 94
        3
 73
     0
 74
     0
 95
       22
 96
       18
 40
6.030662373476993
 40
6.030662373476993
 40
6.030662373476993
 40
6.030662373476993
 40
6.407353829202204
 40
6.407353829202204
 40
6.784045284927413
 40
6.784045284927413
 40
7.160736740652624
 40
7.160736740652624
 40
7.537428196377835
 40
7.537428196377835
 40
7.91426419263626
 40
7.91426419263626
 40
8.291100188894686
 40
8.291100188894686
 40
8.667936185153113
 40
8.667936185153113
 40
9.044772181411538
 40
9.044772181411538
 40
9.044772181411538
 40
9.044772181411538
 10
4049.638172286451
 20
1740.465205777192
 10
4050.022291832928
 20
1741.675548448272
 10
4050.008334610936
 20
1741.518592260456
 10
4049.949510828429
 20
1741.20281528001
 10
4049.90465641063
 20
1741.043993708472
 10
4049.785929099377
 20
1740.735712751456
 10
4049.711959899015
 20
1740.586009094471
 10
4049.540829315285
 20
1740.305421762279
 10
4049.443654642103
 20
1740.17454620429
 10
4049.236267592305
 20
1739.939099983095
 10
4049.118969494831
 20
1739.826497379973
 10
4048.863173380019
 20
1739.622987602513
 10
4048.724680227211
 20
1739.532072079508
 10
4048.435352546837
 20
1739.379298052069
 10
4048.284285151129
 20
1739.317318598703
 10
4047.980046832124
 20
1739.225344140917
 10
4047.826872892122
 20
1739.195361951155
 10
4047.678551373804
 20
1739.18042924718
 72
     1
 10
4049.638172286451
 20
1740.465205777192
 11
4049.638172286444
 21
651.2276617789043
 72
     3
 10
4049.013172286444
 20
651.2276617789042
 11
0.6250000000000001
 21
0.0
 40
0.2898359481293595
 50
323.3672972856057
 51
359.9999999998231
 73
     1
 72
     3
 10
4028.8111142444
 20
666.2489322716404
 11
-56.249999999775
 21
0.0000000000000021
 40
0.2898359481293596
 50
-0.0000000000003712
 51
143.3672972848442
 73
     1
 72
     1
 10
3972.561114244634
 20
1751.467197145801
 11
3972.561114244634
 21
666.2489322716424
 97
        6
330
413
330
414
330
439
330
41B
330
41A
330
43A
 75
     0
 76
     1
 52
0.0
 41
1.0
 77
     0
 78
     3
 53
0.0
 43
-17149.81460903057
 44
-3900.994347425596
 45
0.0
 46
5.499259999999999
 79
     2
 49
3.174999999999999
 49
-6.349999999999999
 53
120.0
 43
-17149.81460903057
 44
-3900.994347425596
 45
-4.762498862015611
 46
-2.749629999999998
 79
     2
 49
3.174999999999998
 49
-6.349999999999996
 53
60.0
 43
-17146.63960903057
 44
-3900.994347425596
 45
-4.762498862015611
 46
2.74963
 79
     2
 49
3.174999999999999
 49
-6.349999999999999
 98
        1
 10
-17149.81460903057
 20
-3900.994347425596
1001
ACAD
1010
0.0
1020
0.0
1030
0.0
  0
ELLIPSE
  5
413
102
{ACAD_REACTORS
330
412
102
}
330
1F
100
AcDbEntity
  8
0
  6
Continuous
370
    13
100
AcDbEllipse
 10
4028.811114244255
 20
1754.923270557248
 30
-0.000000439120136
 11
-57.49999999977493
 21
-0.0000000000000058
 31
0.0000000000000051
210
0.0000000000000001
220
0.0000000000000002
230
1.0
 40
0.2898359481293596
 41
-0.0000000000000455
 42
1.905118916671273
  0
SPLINE
  5
414
102
{ACAD_REACTORS
330
412
102
}
330
1F
100
AcDbEntity
  8
0
  6
Continuous
370
    13
100
AcDbSpline
210
-0.0000000000008134
220
0.0000000000011434
230
1.0
 70
     8
 71
     3
 72
    22
 73
    18
 74
     0
 42
0.0000000001
 43
0.0000000001
 40
6.030662373476993
 40
6.030662373476993
 40
6.030662373476993
 40
6.030662373476993
 40
6.407353829202204
 40
6.407353829202204
 40
6.784045284927413
 40
6.784045284927413
 40
7.160736740652624
 40
7.160736740652624
 40
7.537428196377835
 40
7.537428196377835
 40
7.91426419263626
 40
7.91426419263626
 40
8.291100188894686
 40
8.291100188894686
 40
8.667936185153113
 40
8.667936185153113
 40
9.044772181411538
 40
9.044772181411538
 40
9.044772181411538
 40
9.044772181411538
 10
4049.638172286451
 20
1740.465205777192
 30
-0.0000004391195676
 10
4050.022291832928
 20
1741.675548448272
 30
-0.0000004391207044
 10
4050.008334610936
 20
1741.518592260456
 30
-0.0000004391255361
 10
4049.949510828429
 20
1741.20281528001
 30
-0.0000004391212729
 10
4049.90465641063
 20
1741.043993708472
 30
-0.0000004391195676
 10
4049.785929099377
 20
1740.735712751456
 30
-0.0000004391246835
 10
4049.711959899015
 20
1740.586009094471
 30
-0.0000004391172938
 10
4049.540829315285
 20
1740.305421762279
 30
-0.0000004391195676
 10
4049.443654642103
 20
1740.17454620429
 30
-0.0000004391235466
 10
4049.236267592305
 20
1739.939099983095
 30
-0.0000004391195676
 10
4049.118969494831
 20
1739.826497379973
 30
-0.0000004391215571
 10
4048.863173380019
 20
1739.622987602513
 30
-0.0000004391255361
 10
4048.724680227211
 20
1739.532072079508
 30
-0.0000004391195676
 10
4048.435352546837
 20
1739.379298052069
 30
-0.0000004391207044
 10
4048.284285151129
 20
1739.317318598703
 30
-0.000000439117578
 10
4047.980046832124
 20
1739.225344140917
 30
-0.0000004391238308
 10
4047.826872892122
 20
1739.195361951155
 30
-0.0000004391192833
 10
4047.678551373804
 20
1739.18042924718
 30
-0.0000004391215571
  0
LINE
  5
415
330
1F
100
AcDbEntity
  8
0
  6
Continuous
370
    13
100
AcDbLine
 10
4050.022291832928
 20
1749.003838708507
 30
-0.0000004391184307
 11
4050.022291832928
 21
1741.825766148383
 31
-0.0000004391238308
210
0.0000000000000001
220
0.957076341350028
230
0.2898359481293593
  0
SPLINE
  5
416
330
1F
100
AcDbEntity
  8
0
  6
Continuous
370
    13
100
AcDbSpline
210
-0.0000000000003891
220
0.0000000000000014
230
1.0
 70
     8
 71
     3
 72
    22
 73
    18
 74
     0
 42
0.0000000001
 43
0.0000000001
 40
9.047215022640344
 40
9.047215022640344
 40
9.047215022640344
 40
9.047215022640344
 40
9.424051018898769
 40
9.424051018898769
 40
9.800887015157195
 40
9.800887015157195
 40
10.17772301141562
 40
10.17772301141562
 40
10.55455900767404
 40
10.55455900767404
 40
10.93125046339926
 40
10.93125046339926
 40
11.30794191912446
 40
11.30794191912446
 40
11.68463337484968
 40
11.68463337484968
 40
12.06132483057489
 40
12.06132483057489
 40
12.06132483057489
 40
12.06132483057489
 10
4047.678551373804
 20
1751.143883514058
 30
-0.0000004391215571
 10
4047.826872892122
 20
1751.15881621803
 30
-0.0000004391189991
 10
4047.980046832124
 20
1751.160081661289
 30
-0.000000439122694
 10
4048.284285151129
 20
1751.13102519021
 30
-0.0000004391221255
 10
4048.43535254683
 20
1751.100715628588
 30
-0.0000004391207044
 10
4048.724680227211
 20
1751.009346453341
 30
-0.0000004391215571
 10
4048.863173380019
 20
1750.948212415736
 30
-0.0000004391215571
 10
4049.118969494831
 20
1750.800276538177
 30
-0.0000004391229782
 10
4049.236267592298
 20
1750.713461206021
 30
-0.0000004391178623
 10
4049.443654642103
 20
1750.523963324592
 30
-0.0000004391189991
 10
4049.540829315285
 20
1750.414821942904
 30
-0.0000004391187149
 10
4049.711959899015
 20
1750.172758159389
 30
-0.0000004391204202
 10
4049.785929099377
 20
1750.039842395382
 30
-0.0000004391224097
 10
4049.90465641063
 20
1749.758612610004
 30
-0.000000439120136
 10
4049.949510828437
 20
1749.610073339761
 30
-0.000000439122694
 10
4050.008334610943
 20
1749.307797385097
 30
-0.0000004391198518
 10
4050.022291832928
 20
1749.154056408617
 30
-0.0000004391218413
 10
4050.022291832928
 20
1749.003838708507
 30
-0.0000004391184307
  0
SPLINE
  5
417
330
1F
100
AcDbEntity
  8
0
  6
Continuous
370
    13
100
AcDbSpline
210
0.0000000180755095
220
-0.0000000142078169
230
0.9999999999999998
 70
     8
 71
     3
 72
     8
 73
     4
 74
     0
 42
0.0000000001
 43
0.0000000001
 40
8.958811048616279
 40
8.958811048616279
 40
8.958811048616279
 40
8.958811048616279
 40
9.044772181411536
 40
9.044772181411536
 40
9.044772181411536
 40
9.044772181411536
 10
3972.561115609036
 20
1770.340538141383
 30
-0.0000004391221255
 10
3972.553586724103
 20
1770.331757997331
 30
-0.000000439117578
 10
3972.546133975344
 20
1770.322268533267
 30
-0.0000004391198518
 10
3972.538772241843
 20
1770.312109081245
 30
-0.0000004391218413
  0
SPLINE
  5
418
102
{ACAD_REACTORS
330
404
102
}
330
1F
100
AcDbEntity
  8
0
  6
Continuous
370
    13
100
AcDbSpline
210
0.0000000000006537
220
-0.0000000000012281
230
1.0
 70
     8
 71
     3
 72
    14
 73
    10
 74
     0
 42
0.0000000001
 43
0.0000000001
 40
13.76145653033968
 40
13.76145653033968
 40
13.76145653033968
 40
13.76145653033968
 40
13.94526565719785
 40
13.94526565719785
 40
14.32210836953989
 40
14.32210836953989
 40
14.69895108188192
 40
14.69895108188192
 40
15.07579379422396
 40
15.07579379422396
 40
15.07579379422396
 40
15.07579379422396
 10
4048.709135850191
 20
1751.094195740442
 30
-0.0000004391209887
 10
4048.652133455933
 20
1751.135825631288
 30
-0.0000004391224097
 10
4048.592261688148
 20
1751.174967828703
 30
-0.0000004391192833
 10
4048.401945628355
 20
1751.28503843058
 30
-0.0000004391189991
 10
4048.26342383136
 20
1751.3461922831
 30
-0.000000439124115
 10
4047.974027235858
 20
1751.437610018448
 30
-0.0000004391209887
 10
4047.822919442883
 20
1751.467948410092
 30
-0.0000004391181465
 10
4047.518590623808
 20
1751.497071615547
 30
-0.0000004391192833
 10
4047.365366571726
 20
1751.495844104627
 30
-0.0000004391198518
 10
4047.21699265132
 20
1751.480952717609
 30
-0.0000004391204202
  0
ELLIPSE
  5
419
102
{ACAD_REACTORS
330
404
102
}
330
1F
100
AcDbEntity
  8
0
  6
Continuous
370
    13
100
AcDbEllipse
 10
4028.811114244255
 20
1766.886724824125
 30
-0.0000004391187149
 11
56.24999999977494
 21
-0.0000000000000011
 31
-0.0000000000000138
210
0.0000000000000002
220
0.0000000000000002
230
1.0
 40
0.2898359481293596
 41
3.141592653586791
 42
5.045744451669375
  0
ELLIPSE
  5
41A
102
{ACAD_REACTORS
330
412
102
}
330
1F
100
AcDbEntity
  8
0
  6
Continuous
370
    13
100
AcDbEllipse
 10
4028.8111142444
 20
666.2489322716404
 30
-0.0000004391198518
 11
-56.249999999775
 21
0.0000000000000021
 31
-0.0000000000000025
210
0.0
220
0.0000000000000002
230
1.0
 40
0.2898359481293596
 41
-0.0000000000000224
 42
1.942478296348357
  0
ELLIPSE
  5
41B
102
{ACAD_REACTORS
330
412
102
}
330
1F
100
AcDbEntity
  8
0
  6
Continuous
370
    13
100
AcDbEllipse
 10
4049.013172286444
 20
651.2276617789042
 30
-0.0000004391238308
 11
0.6250000000000001
 21
0.0
 31
0.0
210
0.0
220
0.0000000000000002
230
1.0
 40
0.2898359481293595
 41
5.084070949947543
 42
6.283185307168933
  0
LINE
  5
41C
330
1F
100
AcDbEntity
  8
0
  6
Continuous
370
    13
100
AcDbLine
 10
4049.795155911376
 20
651.1225707534298
 30
-0.0000004391164412
 11
4049.795155911376
 21
1740.768460937586
 31
-0.0000004391172938
210
0.0000000000000001
220
0.957076341350028
230
0.2898359481293593
  0
LINE
  5
41D
330
1F
100
AcDbEntity
  8
0
  6
Continuous
370
    13
100
AcDbLine
 10
4049.795155911376
 20
1750.009212184375
 30
-0.000000439116157
 11
4049.795155911376
 21
2840.434701591619
 31
-0.0000004391205623
210
0.0000000000000001
220
0.957076341350028
230
0.2898359481293593
  0
ELLIPSE
  5
41E
330
1F
100
AcDbEntity
  8
0
  6
Continuous
370
    13
100
AcDbEllipse
 10
4028.8111142444
 20
2855.561063109833
 30
-0.0000004391239729
 11
56.249999999775
 21
-0.0000000000000021
 31
0.0000000000000025
210
0.0
220
0.0000000000000002
230
1.0
 40
0.2898359481293596
 41
5.094682744765916
 42
6.283185307179564
  0
LINE
  5
41F
330
1F
100
AcDbEntity
  8
0
  6
Continuous
370
    13
100
AcDbLine
 10
4049.795155911376
 20
651.1225707534298
 30
-0.0000004391164412
 11
4049.638172286451
 21
651.2574024017588
 31
-0.0000004391215571
210
0.0000000000000001
220
0.957076341350028
230
0.2898359481293593
  0
ELLIPSE
  5
420
330
1F
100
AcDbEntity
  8
0
  6
Continuous
370
    13
100
AcDbEllipse
 10
4028.8111142444
 20
666.2489322716404
 30
-0.0000004391198518
 11
-56.249999999775
 21
0.0000000000000021
 31
-0.0000000000000025
210
0.0
220
0.0000000000000002
230
1.0
 40
0.2898359481293596
 41
1.953090091176069
 42
3.14159265358977
  0
LINE
  5
421
330
1F
100
AcDbEntity
  8
0
  6
Continuous
370
    13
100
AcDbLine
 10
4085.061114244182
 20
1646.084734210345
 30
-0.0000004391238308
 11
4095.561066731765
 21
1649.542374705981
 31
-0.0000004391204202
210
0.0000000000000001
220
0.957076341350028
230
0.2898359481293593
  0
LINE
  5
422
330
1F
100
AcDbEntity
  8
0
  6
Continuous
370
    13
100
AcDbLine
 10
4095.561066731765
 20
1649.542374705981
 30
-0.0000004391204202
 11
4095.561066731765
 21
1888.811460043489
 31
-0.0000004391184307
210
0.0000000000000001
220
0.957076341350028
230
0.2898359481293593
  0
LINE
  5
423
330
1F
100
AcDbEntity
  8
0
  6
Continuous
370
    13
100
AcDbLine
 10
4095.561066731765
 20
1888.811460043489
 30
-0.0000004391184307
 11
4085.061114244175
 21
1891.49000741283
 31
-0.0000004391198518
210
0.0000000000000001
220
0.957076341350028
230
0.2898359481293593
  0
LINE
  5
424
330
1F
100
AcDbEntity
  8
0
  6
Continuous
370
    13
100
AcDbLine
 10
4085.061114244182
 20
1885.353819547853
 30
-0.0000004391215571
 11
4095.561066731765
 21
1888.811460043489
 31
-0.0000004391184307
210
0.0000000000000001
220
0.957076341350028
230
0.2898359481293593
  0
ELLIPSE
  5
425
330
1F
100
AcDbEntity
  8
0
  6
Continuous
370
    13
100
AcDbEllipse
 10
4088.203838073719
 20
1684.655063234462
 30
-0.0000004391275256
 11
0.6179617730754745
 21
2.42242094752696
 31
-0.0000000000000006
210
-0.0000000000000001
220
0.0000000000000002
230
1.0
 40
0.6323345656966987
 41
5.095846263283
 42
5.118025263186115
  0
ELLIPSE
  5
426
330
1F
100
AcDbEntity
  8
0
  6
Continuous
370
    13
100
AcDbEllipse
 10
4088.203838073719
 20
1684.655063234462
 30
-0.0000004391275256
 11
0.6179617730754745
 21
2.42242094752696
 31
-0.0000000000000006
210
-0.0000000000000001
220
0.0000000000000002
230
1.0
 40
0.6323345656966987
 41
4.306752697583857
 42
5.095846263283
  0
ELLIPSE
  5
427
330
1F
100
AcDbEntity
  8
0
  6
Continuous
370
    13
100
AcDbEllipse
 10
4091.018795701397
 20
1683.936964999511
 30
-0.0000004391224097
 11
-0.6179617730754745
 21
-2.42242094752696
 31
0.0000000000000006
210
-0.0000000000000001
220
0.0000000000000002
230
1.0
 40
0.6323345656966987
 41
0.0
 42
6.283185307179586
  0
ELLIPSE
  5
428
330
1F
100
AcDbEntity
  8
0
  6
Continuous
370
    13
100
AcDbEllipse
 10
4088.203838073719
 20
1852.143422970719
 30
-0.0000004391258203
 11
0.6179617730754745
 21
2.42242094752696
 31
-0.0000000000000006
210
-0.0000000000000001
220
0.0000000000000002
230
1.0
 40
0.6323345656966987
 41
5.095846263282963
 42
5.118025263185661
  0
ELLIPSE
  5
429
330
1F
100
AcDbEntity
  8
0
  6
Continuous
370
    13
100
AcDbEllipse
 10
4088.203838073719
 20
1852.143422970719
 30
-0.0000004391258203
 11
0.6179617730754745
 21
2.42242094752696
 31
-0.0000000000000006
210
-0.0000000000000001
220
0.0000000000000002
230
1.0
 40
0.6323345656966987
 41
4.306752697583537
 42
5.095846263282963
  0
ELLIPSE
  5
42A
330
1F
100
AcDbEntity
  8
0
  6
Continuous
370
    13
100
AcDbEllipse
 10
4091.018795701397
 20
1851.425324735766
 30
-0.0000004391212729
 11
-0.6179617730754745
 21
-2.42242094752696
 31
0.0000000000000006
210
-0.0000000000000001
220
0.0000000000000002
230
1.0
 40
0.6323345656966987
 41
0.0
 42
6.283185307179586
  0
LINE
  5
42B
102
{ACAD_REACTORS
330
404
102
}
330
1F
100
AcDbEntity
  8
0
  6
Continuous
370
    13
100
AcDbLine
 10
4049.638172286444
 20
2840.41648678485
 30
-0.0000004391225518
 11
4049.638172286444
 21
1750.27695186259
 31
-0.0000004391204202
210
0.0000000000000001
220
0.957076341350028
230
0.2898359481293593
  0
LINE
  5
42C
102
{ACAD_REACTORS
330
404
102
}
330
1F
100
AcDbEntity
  8
0
  6
Continuous
370
    13
100
AcDbLine
 10
3972.561114244626
 20
2855.561063109833
 30
-0.0000004391251098
 11
3972.561114244634
 21
1766.886724824174
 31
-0.0000004391218413
210
0.0000000000000001
220
0.957076341350028
230
0.2898359481293593
  0
LINE
  5
42D
330
1F
100
AcDbEntity
  8
0
  6
Continuous
370
    13
100
AcDbLine
 10
3973.719547264574
 20
2869.065563082542
 30
-0.000000439120136
 11
3972.580790384517
 21
2856.590417683584
 31
-0.000000439118857
210
0.0000000000000001
220
0.957076341350028
230
0.2898359481293593
  0
LINE
  5
42E
330
1F
100
AcDbEntity
  8
0
  6
Continuous
370
    13
100
AcDbLine
 10
4083.902681224235
 20
2869.065563082542
 30
-0.0000004391212729
 11
4085.041438104284
 21
2856.590417683586
 31
-0.0000004391259624
210
0.0000000000000001
220
0.957076341350028
230
0.2898359481293593
  0
SPLINE
  5
42F
330
1F
100
AcDbEntity
  8
0
  6
Continuous
370
    13
100
AcDbSpline
210
-0.0000000000000162
220
-0.0000000000000423
230
1.0
 70
     8
 71
     3
 72
    28
 73
    24
 74
     0
 42
0.0000000001
 43
0.0000000001
 40
0.7481935180447329
 40
0.7481935180447329
 40
0.7481935180447329
 40
0.7481935180447329
 40
0.9022574624253586
 40
0.9022574624253586
 40
1.117195843484027
 40
1.117195843484027
 40
1.496203935396554
 40
1.496203935396554
 40
1.852408053103022
 40
1.852408053103022
 40
2.18847970126394
 40
2.18847970126394
 40
2.519542639625475
 40
2.519542639625475
 40
2.851594403993391
 40
2.851594403993391
 40
3.191818071467561
 40
3.191818071467561
 40
3.559993155533702
 40
3.559993155533702
 40
3.698439013629139
 40
3.698439013629139
 40
3.836884871724575
 40
3.836884871724575
 40
3.836884871724575
 40
3.836884871724575
 10
4083.902681224235
 20
2869.065563082538
 30
-0.0000004391219834
 10
4083.736380053013
 20
2870.887401727323
 30
-0.0000004391171517
 10
4083.077539227959
 20
2872.587488811299
 30
-0.0000004391216992
 10
4080.952279283713
 20
2875.96268134337
 30
-0.0000004391218413
 10
4079.321299959445
 20
2877.441329275314
 30
-0.0000004391177202
 10
4074.253534596324
 20
2880.95993737056
 30
-0.0000004391211308
 10
4070.260420571304
 20
2882.622053667375
 30
-0.0000004391231203
 10
4061.082191721214
 20
2885.341069462795
 30
-0.0000004391228361
 10
4055.990759733436
 20
2886.381805819612
 30
-0.0000004391208465
 10
4045.288538252008
 20
2887.842611503849
 30
-0.0000004391232624
 10
4039.729411422098
 20
2888.290617799422
 30
-0.0000004391204202
 10
4028.510691408931
 20
2888.630203041673
 30
-0.0000004391184307
 10
4022.857110238894
 20
2888.5296332679
 30
-0.0000004391205623
 10
4011.910017860214
 20
2887.796750839335
 30
-0.0000004391208465
 10
4006.621076887398
 20
2887.163796426401
 30
-0.0000004391205623
 10
3996.796148447252
 20
2885.382229680907
 30
-0.000000439121415
 10
3992.288376614726
 20
2884.228104180694
 30
-0.0000004391215571
 10
3984.190203876218
 20
2881.274710854184
 30
-0.0000004391248256
 10
3980.68830226339
 20
2879.511650112592
 30
-0.0000004391204202
 10
3976.868048635986
 20
2875.974145694163
 30
-0.0000004391218413
 10
3975.922791917872
 20
2874.872429332428
 30
-0.0000004391222676
 10
3974.41621488334
 20
2872.248387903457
 30
-0.0000004391199939
 10
3973.868989812252
 20
2870.702714562092
 30
-0.0000004391256782
 10
3973.719547264574
 20
2869.06556308254
 30
-0.000000439124115
  0
LINE
  5
430
330
1F
100
AcDbEntity
  8
0
  6
Continuous
370
    13
100
AcDbLine
 10
4085.061114244401
 20
2855.561063109833
 30
-0.0000004391228361
 11
4085.061114244401
 21
2856.159235823174
 31
-0.000000439122694
210
0.0000000000000001
220
0.957076341350028
230
0.2898359481293593
  0
LINE
  5
431
330
1F
100
AcDbEntity
  8
0
  6
Continuous
370
    13
100
AcDbLine
 10
3972.561114244401
 20
2855.561063109833
 30
-0.0000004391239729
 11
3972.561114244401
 21
2856.159235823177
 31
-0.000000439122694
210
0.0000000000000001
220
0.957076341350028
230
0.2898359481293593
  0
LINE
  5
432
330
1F
100
AcDbEntity
  8
0
  6
Continuous
370
    13
100
AcDbLine
 10
4083.902681224235
 20
652.7444322989334
 30
-0.0000004391212729
 11
4085.041438104291
 21
665.2195776978873
 31
-0.000000439120136
210
0.0000000000000001
220
0.957076341350028
230
0.2898359481293593
  0
LINE
  5
433
330
1F
100
AcDbEntity
  8
0
  6
Continuous
370
    13
100
AcDbLine
 10
3973.719547264574
 20
652.7444322989334
 30
-0.0000004391195676
 11
3972.580790384525
 21
665.2195776978891
 31
-0.0000004391221255
210
0.0000000000000001
220
0.957076341350028
230
0.2898359481293593
  0
SPLINE
  5
434
330
1F
100
AcDbEntity
  8
0
  6
Continuous
370
    13
100
AcDbSpline
210
0.0000000000000025
220
0.0000000000000634
230
1.0
 70
     8
 71
     3
 72
    28
 73
    24
 74
     0
 42
0.0000000001
 43
0.0000000001
 40
3.889786171634597
 40
3.889786171634597
 40
3.889786171634597
 40
3.889786171634597
 40
4.043850116015229
 40
4.043850116015229
 40
4.258788497073952
 40
4.258788497073952
 40
4.637796588986527
 40
4.637796588986527
 40
4.994000706692978
 40
4.994000706692978
 40
5.330072354853891
 40
5.330072354853891
 40
5.661135293215425
 40
5.661135293215425
 40
5.993187057583343
 40
5.993187057583343
 40
6.333410725057519
 40
6.333410725057519
 40
6.701585809123682
 40
6.701585809123682
 40
6.840031667219017
 40
6.840031667219017
 40
6.978477525314352
 40
6.978477525314352
 40
6.978477525314352
 40
6.978477525314352
 10
3973.719547264574
 20
652.7444322989334
 30
-0.0000004391195676
 10
3973.885848435804
 20
650.9225936541492
 30
-0.000000439117578
 10
3974.544689260851
 20
649.2225065701708
 30
-0.0000004391232624
 10
3976.669949205096
 20
645.8473140381023
 30
-0.0000004391221255
 10
3978.300928529371
 20
644.3686661061577
 30
-0.0000004391238308
 10
3983.368693892493
 20
640.8500580109115
 30
-0.0000004391198518
 10
3987.361807917505
 20
639.1879417140966
 30
-0.0000004391195676
 10
3996.540036767603
 20
636.4689259186774
 30
-0.0000004391204202
 10
4001.63146875538
 20
635.42818956186
 30
-0.0000004391164412
 10
4012.3336902368
 20
633.9673838776264
 30
-0.0000004391198518
 10
4017.892817066718
 20
633.5193775820492
 30
-0.0000004391204202
 10
4029.111537079892
 20
633.1797923398002
 30
-0.0000004391243993
 10
4034.76511824993
 20
633.2803621135748
 30
-0.0000004391198518
 10
4045.712210628602
 20
634.0132445421417
 30
-0.0000004391172938
 10
4051.001151601417
 20
634.6461989550765
 30
-0.0000004391192833
 10
4060.826080041564
 20
636.4277657005708
 30
-0.0000004391221255
 10
4065.333851874076
 20
637.5818912007811
 30
-0.0000004391187149
 10
4073.432024612599
 20
640.5352845272931
 30
-0.0000004391215571
 10
4076.933926225427
 20
642.2983452688853
 30
-0.0000004391189991
 10
4080.754179852823
 20
645.8358496873164
 30
-0.0000004391224097
 10
4081.699436570938
 20
646.937566049049
 30
-0.0000004391204202
 10
4083.206013605469
 20
649.5616074780185
 30
-0.0000004391207044
 10
4083.753238676557
 20
651.1072808193851
 30
-0.0000004391209887
 10
4083.902681224235
 20
652.7444322989334
 30
-0.0000004391224097
  0
LINE
  5
435
330
1F
100
AcDbEntity
  8
0
  6
Continuous
370
    13
100
AcDbLine
 10
4085.061114244401
 20
665.6507595582983
 30
-0.0000004391212729
 11
4085.061114244401
 21
666.2489322716404
 31
-0.0000004391187149
210
0.0000000000000001
220
0.957076341350028
230
0.2898359481293593
  0
LINE
  5
436
330
1F
100
AcDbEntity
  8
0
  6
Continuous
370
    13
100
AcDbLine
 10
3972.561114244401
 20
665.6507595583001
 30
-0.0000004391229782
 11
3972.561114244401
 21
666.2489322716423
 31
-0.0000004391204202
210
0.0000000000000001
220
0.957076341350028
230
0.2898359481293593
  0
LINE
  5
437
330
1F
100
AcDbEntity
  8
0
  6
Continuous
370
    13
100
AcDbLine
 10
3971.311114244474
 20
1754.923270557248
 30
-0.000000439120136
 11
3971.311114244481
 21
1766.886724824125
 31
-0.0000004391198518
210
0.0000000000000001
220
0.957076341350028
230
0.2898359481293593
  0
LINE
  5
438
102
{ACAD_REACTORS
330
404
102
}
330
1F
100
AcDbEntity
  8
0
  6
Continuous
370
    13
100
AcDbLine
 10
4048.709162387238
 20
1751.094231318967
 30
-0.0000004391252519
 11
4049.638172286444
 21
1750.27695186259
 31
-0.0000004391204202
210
0.0000000000000001
220
0.957076341350028
230
0.2898359481293593
  0
LINE
  5
439
102
{ACAD_REACTORS
330
412
102
}
330
1F
100
AcDbEntity
  8
0
  6
Continuous
370
    13
100
AcDbLine
 10
4049.638172286451
 20
1740.465205777192
 30
-0.0000004391195676
 11
4049.638172286444
 21
651.2276617789042
 31
-0.000000439117578
210
0.0000000000000001
220
0.957076341350028
230
0.2898359481293593
  0
LINE
  5
43A
102
{ACAD_REACTORS
330
412
102
}
330
1F
100
AcDbEntity
  8
0
  6
Continuous
370
    13
100
AcDbLine
 10
3972.561114244634
 20
1751.467197145801
 30
-0.0000004391218413
 11
3972.561114244634
 21
666.2489322716423
 31
-0.0000004391204202
210
0.0000000000000001
220
0.957076341350028
230
0.2898359481293593
  0
LINE
  5
43B
330
1F
100
AcDbEntity
  8
0
  6
Continuous
370
    13
100
AcDbLine
 10
4085.061114244182
 20
666.2489322716404
 30
-0.0000004391187149
 11
4085.061114244175
 21
2855.561063109833
 31
-0.0000004391216992
210
0.0000000000000001
220
0.957076341350028
230
0.2898359481293593
  0
MTEXT
  5
43C
330
1F
100
AcDbEntity
  8
0
370
    15
100
AcDbMText
 10
3106.368587076662
 20
228.6737040509501
 30
0.0
 40
29.08361610119977
 41
318.3939276582529
 71
     1
 72
     5
  1
単位（mm）
  7
\U+6837式 1
 73
     1
 44
1.0
1001
ACAD
1000
MTEXTBEGIN
1070
    73
1070
     1
1070
    44
1040
1.0
1070
    74
1070
     0
1000
MTEXTEND
  0
MTEXT
  5
43D
330
1F
100
AcDbEntity
  8
0
370
    13
100
AcDbMText
 10
806.1724601082326
 20
1780.164829710007
 30
0.0
 40
33.33501609973629
 41
1274.281444408585
 71
     1
 72
     5
  1
：　【オプション】　背面固定プレート×1増設{\H0.6x;　※3}
  7
\U+6837式 1
 73
     1
 44
1.0
1001
ACAD
1000
MTEXTBEGIN
1070
    73
1070
     1
1070
    44
1040
1.0
1070
    74
1070
     0
1000
MTEXTEND
  0
MTEXT
  5
43E
330
1F
100
AcDbEntity
  8
0
370
    13
100
AcDbMText
 10
124.2936876521993
 20
384.9483976717323
 30
0.0
 40
31.58054156817123
 41
1207.213999966028
 71
     1
 72
     5
  1
リオス株式会社　2014年
  7
\U+6837式 1
 73
     1
 44
1.0
1001
ACAD
1000
MTEXTBEGIN
1070
    73
1070
     1
1070
    44
1040
1.0
1070
    74
1070
     0
1000
MTEXTEND
  0
ENDSEC
  0
SECTION
  2
OBJECTS
  0
DICTIONARY
  5
C
330
0
100
AcDbDictionary
281
     1
  3
ACAD_COLOR
350
6B
  3
ACAD_GROUP
350
D
  3
ACAD_LAYOUT
350
1A
  3
ACAD_MATERIAL
350
6A
  3
ACAD_MLINESTYLE
350
17
  3
ACAD_PLOTSETTINGS
350
19
  3
ACAD_PLOTSTYLENAME
350
E
  3
ACAD_TABLESTYLE
350
7E
  3
ACAD_VISUALSTYLE
350
F2
  3
AcDbVariableDictionary
350
5E
  3
DWGPROPS
350
519
  0
DICTIONARY
  5
1A9
330
2
100
AcDbDictionary
280
     1
281
     1
  3
ACAD_LAYERSTATES
360
1AA
  0
DICTIONARY
  5
3E6
330
3E5
100
AcDbDictionary
280
     1
281
     1
  3
ACAD_DIMASSOC
360
3E7
  0
DICTIONARY
  5
3EF
330
3EE
100
AcDbDictionary
280
     1
281
     1
  3
ACAD_DIMASSOC
360
3F0
  0
DICTIONARY
  5
6B
102
{ACAD_REACTORS
330
C
102
}
330
C
100
AcDbDictionary
281
     1
  0
DICTIONARY
  5
D
102
{ACAD_REACTORS
330
C
102
}
330
C
100
AcDbDictionary
281
     1
  0
DICTIONARY
  5
1A
102
{ACAD_REACTORS
330
C
102
}
330
C
100
AcDbDictionary
281
     1
  3
Model
350
22
  3
レイアウト1
350
D3
  3
レイアウト2
350
D7
  0
DICTIONARY
  5
6A
102
{ACAD_REACTORS
330
C
102
}
330
C
100
AcDbDictionary
281
     1
  3
ByBlock
350
F0
  3
ByLayer
350
EF
  3
Global
350
F1
  0
DICTIONARY
  5
17
102
{ACAD_REACTORS
330
C
102
}
330
C
100
AcDbDictionary
281
     1
  3
Standard
350
18
  0
DICTIONARY
  5
19
102
{ACAD_REACTORS
330
C
102
}
330
C
100
AcDbDictionary
281
     1
  0
ACDBDICTIONARYWDFLT
  5
E
102
{ACAD_REACTORS
330
C
102
}
330
C
100
AcDbDictionary
281
     1
  3
Normal
350
F
100
AcDbDictionaryWithDefault
340
F
  0
DICTIONARY
  5
7E
102
{ACAD_REACTORS
330
C
102
}
330
C
100
AcDbDictionary
281
     1
  3
Standard
350
7F
  0
DICTIONARY
  5
F2
102
{ACAD_REACTORS
330
C
102
}
330
C
100
AcDbDictionary
281
     1
  3
2dWireframe
350
F8
  3
3D Hidden
350
FA
  3
3dWireframe
350
F9
  3
Basic
350
F7
  3
Brighten
350
FE
  3
ColorChange
350
102
  3
Conceptual
350
FB
  3
Dim
350
FD
  3
Facepattern
350
101
  3
Flat
350
F3
  3
FlatWithEdges
350
F4
  3
Gouraud
350
F5
  3
GouraudWithEdges
350
F6
  3
Linepattern
350
100
  3
Realistic
350
FC
  3
Thicken
350
FF
  0
DICTIONARY
  5
5E
102
{ACAD_REACTORS
330
C
102
}
330
C
100
AcDbDictionary
281
     1
  3
CTABLESTYLE
350
84
  3
DIMASSOC
350
5F
  3
HIDETEXT
350
63
  3
INDEXCTL
350
516
  3
PSOLHEIGHT
350
518
  3
PSOLWIDTH
350
517
  3
SORTENTS
350
515
  0
XRECORD
  5
519
102
{ACAD_REACTORS
330
C
102
}
330
C
100
AcDbXrecord
280
     1
  1
DWGPROPS COOKIE
  2

  3

  4

  6

  7

  8
オーナー
  9

300
=
301
=
302
=
303
=
304
=
305
=
306
=
307
=
308
=
309
=
 40
0.0009235763888889
 41
2456987.669766343
 42
2456987.670686122
  1

 90
        0
  0
DICTIONARY
  5
1AA
102
{ACAD_REACTORS
330
1A9
102
}
330
1A9
100
AcDbDictionary
281
     1
  0
DIMASSOC
  5
3E7
102
{ACAD_REACTORS
330
3E6
102
}
330
3E6
100
AcDbDimAssoc
330
3E5
 90
        2
 70
     0
 71
     0
  1
AcDbOsnapPointRef
 72
     1
331
3D9
 73
     2
 91
        0
 40
0.9999999999999998
 10
0.0
 20
0.0
 30
2.000000000000000E+50
 75
     0
  0
DIMASSOC
  5
3F0
102
{ACAD_REACTORS
330
3EF
102
}
330
3EF
100
AcDbDimAssoc
330
3EE
 90
        2
 70
     0
 71
     0
  1
AcDbOsnapPointRef
 72
    13
331
384
 73
     2
 91
        0
 40
0.0
 10
0.0
 20
0.0
 30
2.000000000000000E+50
 75
     0
  0
LAYOUT
  5
22
102
{ACAD_XDICTIONARY
360
51A
102
}
102
{ACAD_REACTORS
330
1A
102
}
330
1A
100
AcDbPlotSettings
  1

  2
none_device
  4
ISO_A4_(210.00_x_297.00_MM)
  6

 40
7.5
 41
20.0
 42
7.5
 43
20.0
 44
210.0
 45
297.0
 46
11.54999923706054
 47
-13.65000009536743
 48
0.0
 49
0.0
140
0.0
141
0.0
142
1.0
143
8.704084754739808
 70
 11952
 72
     1
 73
     0
 74
     0
  7

 75
     0
147
0.1148885871608098
148
0.0
149
0.0
100
AcDbLayout
  1
Model
 70
     1
 71
     0
 10
0.0
 20
0.0
 11
12.0
 21
9.0
 12
0.0
 22
0.0
 32
0.0
 14
0.0
 24
0.0
 34
0.0
 15
0.0
 25
0.0
 35
0.0
146
0.0
 13
0.0
 23
0.0
 33
0.0
 16
1.0
 26
0.0
 36
0.0
 17
0.0
 27
1.0
 37
0.0
 76
     0
330
1F
331
ED
1001
ACAD_PSEXT
1000
None
1000
None
1000
Not applicable
1000
The layout will not be plotted unless a new plotter configuration name is selected.
1070
     0
  0
LAYOUT
  5
D3
102
{ACAD_XDICTIONARY
360
51E
102
}
102
{ACAD_REACTORS
330
1A
102
}
330
1A
100
AcDbPlotSettings
  1

  2
C:\Documents and Settings\basas\Application Data\Autodesk\AutoCAD 2005\R16.1\enu\plotters\Default Windows System Printer.pc3
  4

  6

 40
0.0
 41
0.0
 42
0.0
 43
0.0
 44
0.0
 45
0.0
 46
0.0
 47
0.0
 48
0.0
 49
0.0
140
0.0
141
0.0
142
1.0
143
1.0
 70
   688
 72
     0
 73
     0
 74
     5
  7

 75
    16
147
1.0
148
0.0
149
0.0
100
AcDbLayout
  1
レイアウト1
 70
     1
 71
     1
 10
0.0
 20
0.0
 11
12.0
 21
9.0
 12
0.0
 22
0.0
 32
0.0
 14
0.0
 24
0.0
 34
0.0
 15
0.0
 25
0.0
 35
0.0
146
0.0
 13
0.0
 23
0.0
 33
0.0
 16
1.0
 26
0.0
 36
0.0
 17
0.0
 27
1.0
 37
0.0
 76
     0
330
D2
  0
LAYOUT
  5
D7
102
{ACAD_XDICTIONARY
360
520
102
}
102
{ACAD_REACTORS
330
1A
102
}
330
1A
100
AcDbPlotSettings
  1

  2
C:\Documents and Settings\basas\Application Data\Autodesk\AutoCAD 2005\R16.1\enu\plotters\Default Windows System Printer.pc3
  4

  6

 40
0.0
 41
0.0
 42
0.0
 43
0.0
 44
0.0
 45
0.0
 46
0.0
 47
0.0
 48
0.0
 49
0.0
140
0.0
141
0.0
142
1.0
143
1.0
 70
   688
 72
     0
 73
     0
 74
     5
  7

 75
    16
147
1.0
148
0.0
149
0.0
100
AcDbLayout
  1
レイアウト2
 70
     1
 71
     2
 10
0.0
 20
0.0
 11
12.0
 21
9.0
 12
0.0
 22
0.0
 32
0.0
 14
0.0
 24
0.0
 34
0.0
 15
0.0
 25
0.0
 35
0.0
146
0.0
 13
0.0
 23
0.0
 33
0.0
 16
1.0
 26
0.0
 36
0.0
 17
0.0
 27
1.0
 37
0.0
 76
     0
330
D6
  0
MATERIAL
  5
F0
102
{ACAD_XDICTIONARY
360
524
102
}
102
{ACAD_REACTORS
330
6A
102
}
330
6A
100
AcDbMaterial
  1
ByBlock
  0
MATERIAL
  5
EF
102
{ACAD_XDICTIONARY
360
522
102
}
102
{ACAD_REACTORS
330
6A
102
}
330
6A
100
AcDbMaterial
  1
ByLayer
  0
MATERIAL
  5
F1
102
{ACAD_XDICTIONARY
360
526
102
}
102
{ACAD_REACTORS
330
6A
102
}
330
6A
100
AcDbMaterial
  1
Global
  0
MLINESTYLE
  5
18
102
{ACAD_REACTORS
330
17
102
}
330
17
100
AcDbMlineStyle
  2
STANDARD
 70
     0
  3

 62
   256
 51
90.0
 52
90.0
 71
     2
 49
0.5
 62
   256
  6
BYLAYER
 49
-0.5
 62
   256
  6
BYLAYER
  0
ACDBPLACEHOLDER
  5
F
102
{ACAD_REACTORS
330
E
102
}
330
E
  0
TABLESTYLE
  5
7F
102
{ACAD_XDICTIONARY
360
51C
102
}
102
{ACAD_REACTORS
330
7E
102
}
330
7E
100
AcDbTableStyle
  3
Standard
 70
     0
 71
     0
 40
1.5
 41
1.5
280
     0
281
     0
  7
Standard
140
4.5
170
     2
 62
     0
 63
     7
283
     0
274
    -2
284
     1
 64
     0
275
    -2
285
     1
 65
     0
276
    -2
286
     1
 66
     0
277
    -2
287
     1
 67
     0
278
    -2
288
     1
 68
     0
279
    -2
289
     1
 69
     0
  7
Standard
140
6.0
170
     5
 62
     0
 63
     7
283
     0
274
    -2
284
     1
 64
     0
275
    -2
285
     1
 65
     0
276
    -2
286
     1
 66
     0
277
    -2
287
     1
 67
     0
278
    -2
288
     1
 68
     0
279
    -2
289
     1
 69
     0
  7
Standard
140
4.5
170
     5
 62
     0
 63
     7
283
     0
274
    -2
284
     1
 64
     0
275
    -2
285
     1
 65
     0
276
    -2
286
     1
 66
     0
277
    -2
287
     1
 67
     0
278
    -2
288
     1
 68
     0
279
    -2
289
     1
 69
     0
  0
VISUALSTYLE
  5
F8
102
{ACAD_REACTORS
330
F2
102
}
330
F2
100
AcDbVisualStyle
  2
2dWireframe
 70
     4
 71
     0
 72
     2
 73
     1
 90
        0
 40
-0.6
 41
-30.0
 62
     5
 63
     7
 74
     1
 91
        4
 64
     7
 65
   257
 75
     1
175
     1
 42
1.0
 92
        0
 66
   257
 43
1.0
 76
     1
 77
     6
 78
     2
 67
     7
 79
     5
170
     0
171
     0
290
     0
174
     0
 93
        1
 44
0.0
173
     0
291
     0
 45
0.0
1001
ACAD
1000
AcDbSavedByObjectVersion
1070
     0
  0
VISUALSTYLE
  5
FA
102
{ACAD_REACTORS
330
F2
102
}
330
F2
100
AcDbVisualStyle
  2
3D Hidden
 70
     6
 71
     1
 72
     2
 73
     2
 90
        0
 40
-0.6
 41
-30.0
 62
     5
 63
     7
 74
     2
 91
        2
 64
     7
 65
   257
 75
     2
175
     1
 42
40.0
 92
        0
 66
   257
 43
1.0
 76
     1
 77
     6
 78
     2
 67
     7
 79
     3
170
     0
171
     0
290
     0
174
     0
 93
        1
 44
0.0
173
     0
291
     0
 45
0.0
1001
ACAD
1000
AcDbSavedByObjectVersion
1070
     0
  0
VISUALSTYLE
  5
F9
102
{ACAD_REACTORS
330
F2
102
}
330
F2
100
AcDbVisualStyle
  2
3dWireframe
 70
     5
 71
     0
 72
     2
 73
     1
 90
        0
 40
-0.6
 41
-30.0
 62
     5
 63
     7
 74
     1
 91
        4
 64
     7
 65
   257
 75
     1
175
     1
 42
1.0
 92
        0
 66
   257
 43
1.0
 76
     1
 77
     6
 78
     2
 67
     7
 79
     5
170
     0
171
     0
290
     0
174
     0
 93
        1
 44
0.0
173
     0
291
     0
 45
0.0
1001
ACAD
1000
AcDbSavedByObjectVersion
1070
     0
  0
VISUALSTYLE
  5
F7
102
{ACAD_REACTORS
330
F2
102
}
330
F2
100
AcDbVisualStyle
  2
Basic
 70
     7
 71
     1
 72
     0
 73
     1
 90
        0
 40
-0.6
 41
-30.0
 62
     5
 63
     7
 74
     0
 91
        4
 64
     7
 65
   257
 75
     1
175
     1
 42
1.0
 92
        8
 66
     7
 43
1.0
 76
     1
 77
     6
 78
     2
 67
     7
 79
     5
170
     0
171
     0
290
     0
174
     0
 93
        1
 44
0.0
173
     0
291
     1
 45
0.0
1001
ACAD
1000
AcDbSavedByObjectVersion
1070
     0
  0
VISUALSTYLE
  5
FE
102
{ACAD_REACTORS
330
F2
102
}
330
F2
100
AcDbVisualStyle
  2
Brighten
 70
    12
 71
     2
 72
     2
 73
     1
 90
        0
 40
-0.6
 41
-30.0
 62
     5
 63
     7
 74
     1
 91
        4
 64
     7
 65
   257
 75
     1
175
     1
 42
1.0
 92
        8
 66
     7
 43
1.0
 76
     1
 77
     6
 78
     2
 67
     7
 79
     5
170
     0
171
     0
290
     0
174
     0
 93
        1
 44
50.0
173
     0
291
     1
 45
0.0
1001
ACAD
1000
AcDbSavedByObjectVersion
1070
     0
  0
VISUALSTYLE
  5
102
102
{ACAD_REACTORS
330
F2
102
}
330
F2
100
AcDbVisualStyle
  2
ColorChange
 70
    16
 71
     2
 72
     2
 73
     3
 90
        0
 40
-0.6
 41
-30.0
 62
     5
 63
     8
 74
     1
 91
        4
 64
     7
 65
   257
 75
     1
175
     1
 42
1.0
 92
        8
 66
     8
 43
1.0
 76
     1
 77
     6
 78
     2
 67
     7
 79
     5
170
     0
171
     0
290
     0
174
     0
 93
        1
 44
0.0
173
     0
291
     1
 45
0.0
1001
ACAD
1000
AcDbSavedByObjectVersion
1070
     0
  0
VISUALSTYLE
  5
FB
102
{ACAD_REACTORS
330
F2
102
}
330
F2
100
AcDbVisualStyle
  2
Conceptual
 70
     9
 71
     3
 72
     2
 73
     1
 90
        0
 40
-0.6
 41
-30.0
 62
     5
 63
     7
 74
     2
 91
        2
 64
     7
 65
   257
 75
     1
175
     1
 42
40.0
 92
        8
 66
     7
 43
1.0
 76
     1
 77
     6
 78
     2
 67
     7
 79
     3
170
     0
171
     0
290
     0
174
     0
 93
        1
 44
0.0
173
     0
291
     0
 45
0.0
1001
ACAD
1000
AcDbSavedByObjectVersion
1070
     0
  0
VISUALSTYLE
  5
FD
102
{ACAD_REACTORS
330
F2
102
}
330
F2
100
AcDbVisualStyle
  2
Dim
 70
    11
 71
     2
 72
     2
 73
     1
 90
        0
 40
-0.6
 41
-30.0
 62
     5
 63
     7
 74
     1
 91
        4
 64
     7
 65
   257
 75
     1
175
     1
 42
1.0
 92
        8
 66
     7
 43
1.0
 76
     1
 77
     6
 78
     2
 67
     7
 79
     5
170
     0
171
     0
290
     0
174
     0
 93
        1
 44
-50.0
173
     0
291
     1
 45
0.0
1001
ACAD
1000
AcDbSavedByObjectVersion
1070
     0
  0
VISUALSTYLE
  5
101
102
{ACAD_REACTORS
330
F2
102
}
330
F2
100
AcDbVisualStyle
  2
Facepattern
 70
    15
 71
     2
 72
     2
 73
     1
 90
        0
 40
-0.6
 41
-30.0
 62
     5
 63
     7
 74
     1
 91
        4
 64
     7
 65
   257
 75
     1
175
     1
 42
1.0
 92
        8
 66
     7
 43
1.0
 76
     1
 77
     6
 78
     2
 67
     7
 79
     5
170
     0
171
     0
290
     0
174
     0
 93
        1
 44
0.0
173
     0
291
     1
 45
0.0
1001
ACAD
1000
AcDbSavedByObjectVersion
1070
     0
  0
VISUALSTYLE
  5
F3
102
{ACAD_REACTORS
330
F2
102
}
330
F2
100
AcDbVisualStyle
  2
Flat
 70
     0
 71
     2
 72
     1
 73
     1
 90
        2
 40
-0.6
 41
30.0
 62
     5
 63
     7
 74
     0
 91
        4
 64
     7
 65
   257
 75
     1
175
     1
 42
1.0
 92
        8
 66
     7
 43
1.0
 76
     1
 77
     6
 78
     2
 67
     7
 79
     5
170
     0
171
     0
290
     0
174
     0
 93
       13
 44
0.0
173
     0
291
     1
 45
0.0
1001
ACAD
1000
AcDbSavedByObjectVersion
1070
     0
  0
VISUALSTYLE
  5
F4
102
{ACAD_REACTORS
330
F2
102
}
330
F2
100
AcDbVisualStyle
  2
FlatWithEdges
 70
     1
 71
     2
 72
     1
 73
     1
 90
        2
 40
-0.6
 41
30.0
 62
     5
 63
     7
 74
     1
 91
        4
 64
     7
 65
   257
 75
     1
175
     1
 42
1.0
 92
        0
 66
   257
 43
1.0
 76
     1
 77
     6
 78
     2
 67
     7
 79
     5
170
     0
171
     0
290
     0
174
     0
 93
       13
 44
0.0
173
     0
291
     1
 45
0.0
1001
ACAD
1000
AcDbSavedByObjectVersion
1070
     0
  0
VISUALSTYLE
  5
F5
102
{ACAD_REACTORS
330
F2
102
}
330
F2
100
AcDbVisualStyle
  2
Gouraud
 70
     2
 71
     2
 72
     2
 73
     1
 90
        2
 40
-0.6
 41
30.0
 62
     5
 63
     7
 74
     0
 91
        4
 64
     7
 65
   257
 75
     1
175
     1
 42
1.0
 92
        0
 66
     7
 43
1.0
 76
     1
 77
     6
 78
     2
 67
     7
 79
     5
170
     0
171
     0
290
     0
174
     0
 93
       13
 44
0.0
173
     0
291
     1
 45
0.0
1001
ACAD
1000
AcDbSavedByObjectVersion
1070
     0
  0
VISUALSTYLE
  5
F6
102
{ACAD_REACTORS
330
F2
102
}
330
F2
100
AcDbVisualStyle
  2
GouraudWithEdges
 70
     3
 71
     2
 72
     2
 73
     1
 90
        2
 40
-0.6
 41
30.0
 62
     5
 63
     7
 74
     1
 91
        4
 64
     7
 65
   257
 75
     1
175
     1
 42
1.0
 92
        0
 66
   257
 43
1.0
 76
     1
 77
     6
 78
     2
 67
     7
 79
     5
170
     0
171
     0
290
     0
174
     0
 93
       13
 44
0.0
173
     0
291
     1
 45
0.0
1001
ACAD
1000
AcDbSavedByObjectVersion
1070
     0
  0
VISUALSTYLE
  5
100
102
{ACAD_REACTORS
330
F2
102
}
330
F2
100
AcDbVisualStyle
  2
Linepattern
 70
    14
 71
     2
 72
     2
 73
     1
 90
        0
 40
-0.6
 41
-30.0
 62
     5
 63
     7
 74
     1
 91
        4
 64
     7
 65
   257
 75
     7
175
     7
 42
1.0
 92
        8
 66
     7
 43
1.0
 76
     1
 77
     6
 78
     2
 67
     7
 79
     5
170
     0
171
     0
290
     0
174
     0
 93
        1
 44
0.0
173
     0
291
     1
 45
0.0
1001
ACAD
1000
AcDbSavedByObjectVersion
1070
     0
  0
VISUALSTYLE
  5
FC
102
{ACAD_REACTORS
330
F2
102
}
330
F2
100
AcDbVisualStyle
  2
Realistic
 70
     8
 71
     2
 72
     2
 73
     1
 90
        0
 40
-0.6
 41
-30.0
 62
     5
 63
     7
 74
     1
 91
        0
 64
     7
 65
   257
 75
     1
175
     1
 42
1.0
 92
        8
 66
     8
 43
1.0
 76
     1
 77
     6
 78
     2
 67
     7
 79
     5
170
     0
171
     0
290
     0
174
     0
 93
       13
 44
0.0
173
     0
291
     0
 45
0.0
1001
ACAD
1000
AcDbSavedByObjectVersion
1070
     0
  0
VISUALSTYLE
  5
FF
102
{ACAD_REACTORS
330
F2
102
}
330
F2
100
AcDbVisualStyle
  2
Thicken
 70
    13
 71
     2
 72
     2
 73
     1
 90
        0
 40
-0.6
 41
-30.0
 62
     5
 63
     7
 74
     1
 91
        4
 64
     7
 65
   257
 75
     1
175
     1
 42
1.0
 92
       12
 66
     7
 43
1.0
 76
     1
 77
     6
 78
     2
 67
     7
 79
     5
170
     0
171
     0
290
     0
174
     0
 93
        1
 44
0.0
173
     0
291
     1
 45
0.0
1001
ACAD
1000
AcDbSavedByObjectVersion
1070
     0
  0
DICTIONARYVAR
  5
84
102
{ACAD_REACTORS
330
5E
102
}
330
5E
100
DictionaryVariables
280
     0
  1
STANDARD
  0
DICTIONARYVAR
  5
5F
102
{ACAD_REACTORS
330
5E
102
}
330
5E
100
DictionaryVariables
280
     0
  1
2
  0
DICTIONARYVAR
  5
63
102
{ACAD_REACTORS
330
5E
102
}
330
5E
100
DictionaryVariables
280
     0
  1
1
  0
DICTIONARYVAR
  5
516
102
{ACAD_REACTORS
330
5E
102
}
330
5E
100
DictionaryVariables
280
     0
  1
0
  0
DICTIONARYVAR
  5
518
102
{ACAD_REACTORS
330
5E
102
}
330
5E
100
DictionaryVariables
280
     0
  1
80.000000
  0
DICTIONARYVAR
  5
517
102
{ACAD_REACTORS
330
5E
102
}
330
5E
100
DictionaryVariables
280
     0
  1
5.000000
  0
DICTIONARYVAR
  5
515
102
{ACAD_REACTORS
330
5E
102
}
330
5E
100
DictionaryVariables
280
     0
  1
127
  0
DICTIONARY
  5
51A
330
22
100
AcDbDictionary
280
     1
281
     1
  3
ACAD_XREC_ROUNDTRIP
360
51B
  0
DICTIONARY
  5
51E
330
D3
100
AcDbDictionary
280
     1
281
     1
  3
ACAD_XREC_ROUNDTRIP
360
51F
  0
DICTIONARY
  5
520
330
D7
100
AcDbDictionary
280
     1
281
     1
  3
ACAD_XREC_ROUNDTRIP
360
521
  0
DICTIONARY
  5
524
330
F0
100
AcDbDictionary
280
     1
281
     1
  3
ACAD_XREC_ROUNDTRIP
360
525
  0
DICTIONARY
  5
522
330
EF
100
AcDbDictionary
280
     1
281
     1
  3
ACAD_XREC_ROUNDTRIP
360
523
  0
DICTIONARY
  5
526
330
F1
100
AcDbDictionary
280
     1
281
     1
  3
ACAD_XREC_ROUNDTRIP
360
527
  0
DICTIONARY
  5
51C
330
7F
100
AcDbDictionary
280
     1
281
     1
  3
ACAD_XREC_ROUNDTRIP
360
51D
  0
XRECORD
  5
51B
102
{ACAD_REACTORS
330
51A
102
}
330
51A
100
AcDbXrecord
280
     1
102
SHADEPLOT
 70
     0
102
SHADEPLOTRESLEVEL
 70
     2
102
SHADEPLOTCUSTOMDPI
 70
   300
  0
XRECORD
  5
51F
102
{ACAD_REACTORS
330
51E
102
}
330
51E
100
AcDbXrecord
280
     1
102
SHADEPLOT
 70
     0
102
SHADEPLOTRESLEVEL
 70
     2
102
SHADEPLOTCUSTOMDPI
 70
   300
  0
XRECORD
  5
521
102
{ACAD_REACTORS
330
520
102
}
330
520
100
AcDbXrecord
280
     1
102
SHADEPLOT
 70
     0
102
SHADEPLOTRESLEVEL
 70
     2
102
SHADEPLOTCUSTOMDPI
 70
   300
  0
XRECORD
  5
525
102
{ACAD_REACTORS
330
524
102
}
330
524
100
AcDbXrecord
280
     1
102
MATERIAL
148
0.0
149
0.0
149
0.0
 93
        0
 94
       63
282
     0
 72
     1
 77
     1
171
     1
175
     1
179
     1
273
     0
  0
XRECORD
  5
523
102
{ACAD_REACTORS
330
522
102
}
330
522
100
AcDbXrecord
280
     1
102
MATERIAL
148
0.0
149
0.0
149
0.0
 93
        0
 94
       63
282
     0
 72
     1
 77
     1
171
     1
175
     1
179
     1
273
     0
  0
XRECORD
  5
527
102
{ACAD_REACTORS
330
526
102
}
330
526
100
AcDbXrecord
280
     1
102
MATERIAL
148
0.0
149
0.0
149
0.0
 93
        0
 94
       63
282
     0
 72
     1
 77
     1
171
     1
175
     1
179
     1
273
     0
  0
XRECORD
  5
51D
102
{ACAD_REACTORS
330
51C
102
}
330
51C
100
AcDbXrecord
280
     1
102
ACAD_ROUNDTRIP_PRE2007_TABLESTYLE
 90
      512
 91
        0
  1

 92
      512
 93
        0
  2

 94
      512
 95
        0
  3

  0
ENDSEC
  0
EOF
