  0
SECTION
  2
HEADER
  9
$ACADVER
  1
AC1015
  9
$ACADMAINTVER
 70
    20
  9
$DWGCODEPAGE
  3
ANSI_932
  9
$INSBASE
 10
0.0
 20
0.0
 30
0.0
  9
$EXTMIN
 10
25.36691717037218
 20
47.74709290916746
 30
-0.0000000000009592
  9
$EXTMAX
 10
3446.968811424028
 20
2467.308432417107
 30
972.6397571985543
  9
$LIMMIN
 10
0.0
 20
0.0
  9
$LIMMAX
 10
420.0
 20
297.0
  9
$ORTHOMODE
 70
     0
  9
$REGENMODE
 70
     1
  9
$FILLMODE
 70
     1
  9
$QTEXTMODE
 70
     0
  9
$MIRRTEXT
 70
     0
  9
$LTSCALE
 40
1.0
  9
$ATTMODE
 70
     1
  9
$TEXTSIZE
 40
2.5
  9
$TRACEWID
 40
1.0
  9
$TEXTSTYLE
  7
Standard
  9
$CLAYER
  8
0
  9
$CELTYPE
  6
ByLayer
  9
$CECOLOR
 62
   256
  9
$CELTSCALE
 40
1.0
  9
$DISPSILH
 70
     0
  9
$DIMSCALE
 40
1.0
  9
$DIMASZ
 40
2.5
  9
$DIMEXO
 40
0.625
  9
$DIMDLI
 40
3.75
  9
$DIMRND
 40
0.0
  9
$DIMDLE
 40
0.0
  9
$DIMEXE
 40
1.25
  9
$DIMTP
 40
0.0
  9
$DIMTM
 40
0.0
  9
$DIMTXT
 40
2.5
  9
$DIMCEN
 40
2.5
  9
$DIMTSZ
 40
0.0
  9
$DIMTOL
 70
     0
  9
$DIMLIM
 70
     0
  9
$DIMTIH
 70
     0
  9
$DIMTOH
 70
     0
  9
$DIMSE1
 70
     0
  9
$DIMSE2
 70
     0
  9
$DIMTAD
 70
     1
  9
$DIMZIN
 70
     8
  9
$DIMBLK
  1

  9
$DIMASO
 70
     1
  9
$DIMSHO
 70
     1
  9
$DIMPOST
  1

  9
$DIMAPOST
  1

  9
$DIMALT
 70
     0
  9
$DIMALTD
 70
     3
  9
$DIMALTF
 40
0.03937007874016
  9
$DIMLFAC
 40
1.0
  9
$DIMTOFL
 70
     1
  9
$DIMTVP
 40
0.0
  9
$DIMTIX
 70
     0
  9
$DIMSOXD
 70
     0
  9
$DIMSAH
 70
     0
  9
$DIMBLK1
  1

  9
$DIMBLK2
  1

  9
$DIMSTYLE
  2
ISO-25
  9
$DIMCLRD
 70
     0
  9
$DIMCLRE
 70
     0
  9
$DIMCLRT
 70
     0
  9
$DIMTFAC
 40
1.0
  9
$DIMGAP
 40
0.625
  9
$DIMJUST
 70
     0
  9
$DIMSD1
 70
     0
  9
$DIMSD2
 70
     0
  9
$DIMTOLJ
 70
     0
  9
$DIMTZIN
 70
     8
  9
$DIMALTZ
 70
     0
  9
$DIMALTTZ
 70
     0
  9
$DIMUPT
 70
     0
  9
$DIMDEC
 70
     2
  9
$DIMTDEC
 70
     2
  9
$DIMALTU
 70
     2
  9
$DIMALTTD
 70
     3
  9
$DIMTXSTY
  7
Standard
  9
$DIMAUNIT
 70
     0
  9
$DIMADEC
 70
     0
  9
$DIMALTRND
 40
0.0
  9
$DIMAZIN
 70
     0
  9
$DIMDSEP
 70
    44
  9
$DIMATFIT
 70
     3
  9
$DIMFRAC
 70
     0
  9
$DIMLDRBLK
  1

  9
$DIMLUNIT
 70
     2
  9
$DIMLWD
 70
    -2
  9
$DIMLWE
 70
    -2
  9
$DIMTMOVE
 70
     0
  9
$LUNITS
 70
     2
  9
$LUPREC
 70
     4
  9
$SKETCHINC
 40
1.0
  9
$FILLETRAD
 40
0.0
  9
$AUNITS
 70
     0
  9
$AUPREC
 70
     0
  9
$MENU
  1
.
  9
$ELEVATION
 40
0.0
  9
$PELEVATION
 40
0.0
  9
$THICKNESS
 40
0.0
  9
$LIMCHECK
 70
     0
  9
$CHAMFERA
 40
0.0
  9
$CHAMFERB
 40
0.0
  9
$CHAMFERC
 40
0.0
  9
$CHAMFERD
 40
0.0
  9
$SKPOLY
 70
     0
  9
$TDCREATE
 40
2456987.673223554
  9
$TDUCREATE
 40
2456987.298223554
  9
$TDUPDATE
 40
2456987.673499711
  9
$TDUUPDATE
 40
2456987.298499711
  9
$TDINDWG
 40
0.0002799537
  9
$TDUSRTIMER
 40
0.0002799537
  9
$USRTIMER
 70
     1
  9
$ANGBASE
 50
0.0
  9
$ANGDIR
 70
     0
  9
$PDMODE
 70
     0
  9
$PDSIZE
 40
0.0
  9
$PLINEWID
 40
0.0
  9
$SPLFRAME
 70
     0
  9
$SPLINETYPE
 70
     6
  9
$SPLINESEGS
 70
     8
  9
$HANDSEED
  5
759
  9
$SURFTAB1
 70
     6
  9
$SURFTAB2
 70
     6
  9
$SURFTYPE
 70
     6
  9
$SURFU
 70
     6
  9
$SURFV
 70
     6
  9
$UCSBASE
  2

  9
$UCSNAME
  2

  9
$UCSORG
 10
0.0
 20
0.0
 30
0.0
  9
$UCSXDIR
 10
1.0
 20
0.0
 30
0.0
  9
$UCSYDIR
 10
0.0
 20
1.0
 30
0.0
  9
$UCSORTHOREF
  2

  9
$UCSORTHOVIEW
 70
     0
  9
$UCSORGTOP
 10
0.0
 20
0.0
 30
0.0
  9
$UCSORGBOTTOM
 10
0.0
 20
0.0
 30
0.0
  9
$UCSORGLEFT
 10
0.0
 20
0.0
 30
0.0
  9
$UCSORGRIGHT
 10
0.0
 20
0.0
 30
0.0
  9
$UCSORGFRONT
 10
0.0
 20
0.0
 30
0.0
  9
$UCSORGBACK
 10
0.0
 20
0.0
 30
0.0
  9
$PUCSBASE
  2

  9
$PUCSNAME
  2

  9
$PUCSORG
 10
0.0
 20
0.0
 30
0.0
  9
$PUCSXDIR
 10
1.0
 20
0.0
 30
0.0
  9
$PUCSYDIR
 10
0.0
 20
1.0
 30
0.0
  9
$PUCSORTHOREF
  2

  9
$PUCSORTHOVIEW
 70
     0
  9
$PUCSORGTOP
 10
0.0
 20
0.0
 30
0.0
  9
$PUCSORGBOTTOM
 10
0.0
 20
0.0
 30
0.0
  9
$PUCSORGLEFT
 10
0.0
 20
0.0
 30
0.0
  9
$PUCSORGRIGHT
 10
0.0
 20
0.0
 30
0.0
  9
$PUCSORGFRONT
 10
0.0
 20
0.0
 30
0.0
  9
$PUCSORGBACK
 10
0.0
 20
0.0
 30
0.0
  9
$USERI1
 70
     0
  9
$USERI2
 70
     0
  9
$USERI3
 70
     0
  9
$USERI4
 70
     0
  9
$USERI5
 70
     0
  9
$USERR1
 40
0.0
  9
$USERR2
 40
0.0
  9
$USERR3
 40
0.0
  9
$USERR4
 40
0.0
  9
$USERR5
 40
0.0
  9
$WORLDVIEW
 70
     1
  9
$SHADEDGE
 70
     3
  9
$SHADEDIF
 70
    70
  9
$TILEMODE
 70
     1
  9
$MAXACTVP
 70
    64
  9
$PINSBASE
 10
0.0
 20
0.0
 30
0.0
  9
$PLIMCHECK
 70
     0
  9
$PEXTMIN
 10
0.0
 20
0.0
 30
0.0
  9
$PEXTMAX
 10
0.0
 20
0.0
 30
0.0
  9
$PLIMMIN
 10
0.0
 20
0.0
  9
$PLIMMAX
 10
12.0
 20
9.0
  9
$UNITMODE
 70
     0
  9
$VISRETAIN
 70
     1
  9
$PLINEGEN
 70
     0
  9
$PSLTSCALE
 70
     1
  9
$TREEDEPTH
 70
  3020
  9
$CMLSTYLE
  2
Standard
  9
$CMLJUST
 70
     0
  9
$CMLSCALE
 40
20.0
  9
$PROXYGRAPHICS
 70
     1
  9
$MEASUREMENT
 70
     1
  9
$CELWEIGHT
370
    -1
  9
$ENDCAPS
280
     0
  9
$JOINSTYLE
280
     0
  9
$LWDISPLAY
290
     0
  9
$INSUNITS
 70
     4
  9
$HYPERLINKBASE
  1

  9
$STYLESHEET
  1

  9
$XEDIT
290
     1
  9
$CEPSNTYPE
380
     0
  9
$PSTYLEMODE
290
     1
  9
$FINGERPRINTGUID
  2
{DB15AEA0-A751-4C9D-86A8-5E3868462DCE}
  9
$VERSIONGUID
  2
{845D8AB1-4EAD-413D-A63E-07969A2BE041}
  9
$EXTNAMES
290
     1
  9
$PSVPSCALE
 40
0.0
  9
$OLESTARTUP
290
     0
  0
ENDSEC
  0
SECTION
  2
CLASSES
  0
CLASS
  1
ACDBDICTIONARYWDFLT
  2
AcDbDictionaryWithDefault
  3
ObjectDBX Classes
 90
        0
280
     0
281
     0
  0
CLASS
  1
DICTIONARYVAR
  2
AcDbDictionaryVar
  3
ObjectDBX Classes
 90
        0
280
     0
281
     0
  0
CLASS
  1
TABLESTYLE
  2
AcDbTableStyle
  3
ObjectDBX Classes
 90
     4095
280
     0
281
     0
  0
CLASS
  1
MATERIAL
  2
AcDbMaterial
  3
ObjectDBX Classes
 90
     1024
280
     0
281
     0
  0
CLASS
  1
VISUALSTYLE
  2
AcDbVisualStyle
  3
ObjectDBX Classes
 90
     4095
280
     0
281
     0
  0
CLASS
  1
DIMASSOC
  2
AcDbDimAssoc
  3
"AcDbDimAssoc|Product Desc:     AcDim ARX App For Dimension|Company:          Autodesk, Inc.|WEB Address:      www.autodesk.com"
 90
        0
280
     0
281
     0
  0
CLASS
  1
ACDBPLACEHOLDER
  2
AcDbPlaceHolder
  3
ObjectDBX Classes
 90
        0
280
     0
281
     0
  0
CLASS
  1
LAYOUT
  2
AcDbLayout
  3
ObjectDBX Classes
 90
        0
280
     0
281
     0
  0
ENDSEC
  0
SECTION
  2
TABLES
  0
TABLE
  2
VPORT
  5
8
330
0
100
AcDbSymbolTable
 70
     1
  0
VPORT
  5
ED
330
8
100
AcDbSymbolTableRecord
100
AcDbViewportTableRecord
  2
*Active
 70
     0
 10
0.0
 20
0.0
 11
1.0
 21
1.0
 12
1672.367686006108
 22
537.2580572814704
 13
0.0
 23
0.0
 14
10.0
 24
10.0
 15
10.0
 25
10.0
 16
0.0
 26
0.0
 36
1.0
 17
0.0
 27
0.0
 37
0.0
 40
4679.63810865271
 41
1.470674486803519
 42
50.0
 43
0.0
 44
0.0
 50
0.0
 51
0.0
 71
     0
 72
  1000
 73
     1
 74
     3
 75
     0
 76
     0
 77
     0
 78
     0
281
     0
 65
     1
110
0.0
120
0.0
130
0.0
111
1.0
121
0.0
131
0.0
112
0.0
122
1.0
132
0.0
 79
     0
146
0.0
  0
ENDTAB
  0
TABLE
  2
LTYPE
  5
5
330
0
100
AcDbSymbolTable
 70
     1
  0
LTYPE
  5
14
330
5
100
AcDbSymbolTableRecord
100
AcDbLinetypeTableRecord
  2
ByBlock
 70
     0
  3

 72
    65
 73
     0
 40
0.0
  0
LTYPE
  5
15
330
5
100
AcDbSymbolTableRecord
100
AcDbLinetypeTableRecord
  2
ByLayer
 70
     0
  3

 72
    65
 73
     0
 40
0.0
  0
LTYPE
  5
16
330
5
100
AcDbSymbolTableRecord
100
AcDbLinetypeTableRecord
  2
Continuous
 70
     0
  3
Solid line
 72
    65
 73
     0
 40
0.0
  0
ENDTAB
  0
TABLE
  2
LAYER
  5
2
102
{ACAD_XDICTIONARY
360
15D
102
}
330
0
100
AcDbSymbolTable
 70
     2
  0
LAYER
  5
10
330
2
100
AcDbSymbolTableRecord
100
AcDbLayerTableRecord
  2
0
 70
     0
 62
     7
  6
Continuous
370
    -3
390
F
  0
LAYER
  5
158
330
2
100
AcDbSymbolTableRecord
100
AcDbLayerTableRecord
  2
Defpoints
 70
     0
 62
     7
  6
Continuous
290
     0
370
    -3
390
F
  0
ENDTAB
  0
TABLE
  2
STYLE
  5
3
330
0
100
AcDbSymbolTable
 70
     2
  0
STYLE
  5
11
330
3
100
AcDbSymbolTableRecord
100
AcDbTextStyleTableRecord
  2
Standard
 70
     0
 40
0.0
 41
1.0
 50
0.0
 71
     0
 42
2.5
  3
txt.shx
  4
extfont2.shx
  0
STYLE
  5
159
330
3
100
AcDbSymbolTableRecord
100
AcDbTextStyleTableRecord
  2
\U+6837式 1
 70
     0
 40
0.0
 41
1.0
 50
0.0
 71
     0
 42
0.2
  3
MS PGothic.ttf
  4

1001
ACAD
1000
MS PGothic
1071
    32818
1001
AcadStringInfo
1000
MIFCodePage
1070
     5
  0
ENDTAB
  0
TABLE
  2
VIEW
  5
6
330
0
100
AcDbSymbolTable
 70
     0
  0
ENDTAB
  0
TABLE
  2
UCS
  5
7
330
0
100
AcDbSymbolTable
 70
     0
  0
ENDTAB
  0
TABLE
  2
APPID
  5
9
330
0
100
AcDbSymbolTable
 70
     5
  0
APPID
  5
12
330
9
100
AcDbSymbolTableRecord
100
AcDbRegAppTableRecord
  2
ACAD
 70
     0
  0
APPID
  5
9E
330
9
100
AcDbSymbolTableRecord
100
AcDbRegAppTableRecord
  2
ACAD_PSEXT
 70
     0
  0
APPID
  5
15B
330
9
100
AcDbSymbolTableRecord
100
AcDbRegAppTableRecord
  2
AcadStringInfo
 70
     0
  0
APPID
  5
15C
330
9
100
AcDbSymbolTableRecord
100
AcDbRegAppTableRecord
  2
ACAD_DSTYLE_DIMJOGGED_JOGANGLE_SYMBOL
 70
     0
  0
APPID
  5
758
330
9
100
AcDbSymbolTableRecord
100
AcDbRegAppTableRecord
  2
ACAD_DSTYLE_DIMEXT_LENGTH
 70
     0
  0
ENDTAB
  0
TABLE
  2
DIMSTYLE
  5
A
330
0
100
AcDbSymbolTable
 70
     2
100
AcDbDimStyleTable
 71
     1
340
27
  0
DIMSTYLE
105
27
330
A
100
AcDbSymbolTableRecord
100
AcDbDimStyleTableRecord
  2
ISO-25
 70
     0
 41
2.5
 42
0.625
 43
3.75
 44
1.25
 73
     0
 74
     0
 77
     1
 78
     8
140
2.5
141
2.5
143
0.03937007874016
147
0.625
171
     3
172
     1
271
     2
272
     2
274
     3
278
    44
283
     0
284
     8
340
11
  0
DIMSTYLE
105
15A
102
{ACAD_REACTORS
330
417
330
41A
330
41D
330
429
330
42C
330
6EE
330
6F1
330
6F4
330
700
330
703
102
}
330
A
100
AcDbSymbolTableRecord
100
AcDbDimStyleTableRecord
  2
sunopo　1
 70
     0
 41
25.0
 42
5.0
 43
1.0
 44
1.0
 47
0.01
 48
0.01
 73
     0
 74
     0
 77
     2
 78
     8
140
35.0
141
0.0
147
15.0
176
   256
178
   256
271
     2
272
     2
284
     8
340
159
341
116
342
116
371
     9
372
     9
1001
ACAD_DSTYLE_DIMEXT_LENGTH
1070
   378
1040
0.18
1001
ACAD_DSTYLE_DIMJOGGED_JOGANGLE_SYMBOL
1070
   384
1040
1.570796326794896
  0
ENDTAB
  0
TABLE
  2
BLOCK_RECORD
  5
1
330
0
100
AcDbSymbolTable
 70
    13
  0
BLOCK_RECORD
  5
1F
330
1
100
AcDbSymbolTableRecord
100
AcDbBlockTableRecord
  2
*Model_Space
340
22
  0
BLOCK_RECORD
  5
D2
330
1
100
AcDbSymbolTableRecord
100
AcDbBlockTableRecord
  2
*Paper_Space
340
D3
  0
BLOCK_RECORD
  5
D6
330
1
100
AcDbSymbolTableRecord
100
AcDbBlockTableRecord
  2
*Paper_Space0
340
D7
  0
BLOCK_RECORD
  5
116
330
1
100
AcDbSymbolTableRecord
100
AcDbBlockTableRecord
  2
_Open30
340
0
102
{BLKREFS
331
121
331
122
331
12D
331
12E
331
139
331
13A
331
145
331
146
331
151
331
152
331
70D
331
70E
331
719
331
71A
331
725
331
726
331
731
331
732
331
73D
331
73E
102
}
  0
BLOCK_RECORD
  5
11C
330
1
100
AcDbSymbolTableRecord
100
AcDbBlockTableRecord
  2
*D2
340
0
  0
BLOCK_RECORD
  5
128
330
1
100
AcDbSymbolTableRecord
100
AcDbBlockTableRecord
  2
*D3
340
0
  0
BLOCK_RECORD
  5
134
330
1
100
AcDbSymbolTableRecord
100
AcDbBlockTableRecord
  2
*D4
340
0
  0
BLOCK_RECORD
  5
140
330
1
100
AcDbSymbolTableRecord
100
AcDbBlockTableRecord
  2
*D5
340
0
  0
BLOCK_RECORD
  5
14C
330
1
100
AcDbSymbolTableRecord
100
AcDbBlockTableRecord
  2
*D6
340
0
  0
BLOCK_RECORD
  5
709
330
1
100
AcDbSymbolTableRecord
100
AcDbBlockTableRecord
  2
*D8
340
0
  0
BLOCK_RECORD
  5
715
330
1
100
AcDbSymbolTableRecord
100
AcDbBlockTableRecord
  2
*D9
340
0
  0
BLOCK_RECORD
  5
721
330
1
100
AcDbSymbolTableRecord
100
AcDbBlockTableRecord
  2
*D10
340
0
  0
BLOCK_RECORD
  5
72D
330
1
100
AcDbSymbolTableRecord
100
AcDbBlockTableRecord
  2
*D11
340
0
  0
BLOCK_RECORD
  5
739
330
1
100
AcDbSymbolTableRecord
100
AcDbBlockTableRecord
  2
*D12
340
0
  0
ENDTAB
  0
ENDSEC
  0
SECTION
  2
BLOCKS
  0
BLOCK
  5
20
330
1F
100
AcDbEntity
  8
0
100
AcDbBlockBegin
  2
*Model_Space
 70
     0
 10
0.0
 20
0.0
 30
0.0
  3
*Model_Space
  1

  0
ENDBLK
  5
21
330
1F
100
AcDbEntity
  8
0
100
AcDbBlockEnd
  0
BLOCK
  5
D4
330
D2
100
AcDbEntity
 67
     1
  8
0
100
AcDbBlockBegin
  2
*Paper_Space
 70
     0
 10
0.0
 20
0.0
 30
0.0
  3
*Paper_Space
  1

  0
ENDBLK
  5
D5
330
D2
100
AcDbEntity
 67
     1
  8
0
100
AcDbBlockEnd
  0
BLOCK
  5
D8
330
D6
100
AcDbEntity
 67
     1
  8
0
100
AcDbBlockBegin
  2
*Paper_Space0
 70
     0
 10
0.0
 20
0.0
 30
0.0
  3
*Paper_Space0
  1

  0
ENDBLK
  5
D9
330
D6
100
AcDbEntity
 67
     1
  8
0
100
AcDbBlockEnd
  0
BLOCK
  5
117
330
116
100
AcDbEntity
  8
0
100
AcDbBlockBegin
  2
_Open30
 70
     0
 10
0.0
 20
0.0
 30
0.0
  3
_Open30
  1

  0
LINE
  5
118
330
116
100
AcDbEntity
  8
0
  6
ByBlock
 62
     0
370
    -2
100
AcDbLine
 10
-1.0
 20
0.26794919
 30
0.0
 11
0.0
 21
0.0
 31
0.0
  0
LINE
  5
119
330
116
100
AcDbEntity
  8
0
  6
ByBlock
 62
     0
370
    -2
100
AcDbLine
 10
0.0
 20
0.0
 30
0.0
 11
-1.0
 21
-0.26794919
 31
0.0
  0
LINE
  5
11A
330
116
100
AcDbEntity
  8
0
  6
ByBlock
 62
     0
370
    -2
100
AcDbLine
 10
0.0
 20
0.0
 30
0.0
 11
-1.0
 21
0.0
 31
0.0
  0
ENDBLK
  5
11B
330
116
100
AcDbEntity
  8
0
100
AcDbBlockEnd
  0
BLOCK
  5
11D
330
11C
100
AcDbEntity
  8
0
100
AcDbBlockBegin
  2
*D2
 70
     1
 10
0.0
 20
0.0
 30
0.0
  3
*D2
  1

  0
LINE
  5
11E
330
11C
100
AcDbEntity
  8
0
 62
     0
370
     9
100
AcDbLine
 10
10925.41819639778
 20
-2548.965067868441
 30
0.0
 11
10925.41819639778
 21
-2475.881017992408
 31
0.0
  0
LINE
  5
11F
330
11C
100
AcDbEntity
  8
0
 62
     0
370
     9
100
AcDbLine
 10
11325.41819639778
 20
-2548.965067868441
 30
0.0
 11
11325.41819639778
 21
-2475.881017992408
 31
0.0
  0
LINE
  5
120
330
11C
100
AcDbEntity
  8
0
370
     9
100
AcDbLine
 10
10950.41819639777
 20
-2476.881017992408
 30
0.0
 11
11300.41819639777
 21
-2476.881017992408
 31
0.0
  0
INSERT
  5
121
330
11C
100
AcDbEntity
  8
0
370
     9
100
AcDbBlockReference
  2
_Open30
 10
10925.41819639778
 20
-2476.881017992408
 30
0.0
 41
25.0
 42
25.0
 43
25.0
 50
180.0
  0
INSERT
  5
122
330
11C
100
AcDbEntity
  8
0
370
     9
100
AcDbBlockReference
  2
_Open30
 10
11325.41819639778
 20
-2476.881017992408
 30
0.0
 41
25.0
 42
25.0
 43
25.0
  0
MTEXT
  5
123
330
11C
100
AcDbEntity
  8
0
100
AcDbMText
 10
11125.41819639778
 20
-2444.381017992407
 30
0.0
 40
35.0
 41
0.0
 71
     5
 72
     1
  1
\A1;400
  7
\U+6837式 1
 73
     1
 44
1.0
1001
ACAD
1000
MTEXTBEGIN
1070
    73
1070
     1
1070
    44
1040
1.0
1070
    74
1070
     0
1000
MTEXTEND
  0
POINT
  5
124
330
11C
100
AcDbEntity
  8
Defpoints
 62
     0
100
AcDbPoint
 10
10925.41819639778
 20
-2553.965067868441
 30
0.0000000000000426
  0
POINT
  5
125
330
11C
100
AcDbEntity
  8
Defpoints
 62
     0
100
AcDbPoint
 10
11325.41819639778
 20
-2553.965067868441
 30
0.0000000000000426
  0
POINT
  5
126
330
11C
100
AcDbEntity
  8
Defpoints
 62
     0
100
AcDbPoint
 10
11325.41819639778
 20
-2476.881017992408
 30
0.0
  0
ENDBLK
  5
127
330
11C
100
AcDbEntity
  8
0
100
AcDbBlockEnd
  0
BLOCK
  5
129
330
128
100
AcDbEntity
  8
0
100
AcDbBlockBegin
  2
*D3
 70
     1
 10
0.0
 20
0.0
 30
0.0
  3
*D3
  1

  0
LINE
  5
12A
330
128
100
AcDbEntity
  8
0
 62
     0
370
     9
100
AcDbLine
 10
10920.41819639778
 20
-2553.965067868441
 30
0.0
 11
10850.36337850598
 21
-2553.965067868441
 31
0.0
  0
LINE
  5
12B
330
128
100
AcDbEntity
  8
0
 62
     0
370
     9
100
AcDbLine
 10
10920.41819639778
 20
-3027.965067868441
 30
0.0
 11
10850.36337850598
 21
-3027.965067868441
 31
0.0
  0
LINE
  5
12C
330
128
100
AcDbEntity
  8
0
370
     9
100
AcDbLine
 10
10851.36337850598
 20
-2578.965067868441
 30
0.0
 11
10851.36337850598
 21
-3002.965067868441
 31
0.0
  0
INSERT
  5
12D
330
128
100
AcDbEntity
  8
0
370
     9
100
AcDbBlockReference
  2
_Open30
 10
10851.36337850598
 20
-2553.965067868441
 30
0.0
 41
25.0
 42
25.0
 43
25.0
 50
90.0
  0
INSERT
  5
12E
330
128
100
AcDbEntity
  8
0
370
     9
100
AcDbBlockReference
  2
_Open30
 10
10851.36337850598
 20
-3027.965067868441
 30
0.0
 41
25.0
 42
25.0
 43
25.0
 50
270.0
  0
MTEXT
  5
12F
330
128
100
AcDbEntity
  8
0
100
AcDbMText
 10
10818.86337850598
 20
-2790.96506786844
 30
0.0
 40
35.0
 41
0.0
 71
     5
 72
     1
  1
\A1;474
  7
\U+6837式 1
 11
0.0000000000000001
 21
1.0
 31
0.0
 73
     1
 44
1.0
1001
ACAD
1000
MTEXTBEGIN
1070
    73
1070
     1
1070
    44
1040
1.0
1070
    74
1070
     0
1000
MTEXTEND
  0
POINT
  5
130
330
128
100
AcDbEntity
  8
Defpoints
 62
     0
100
AcDbPoint
 10
10925.41819639778
 20
-2553.965067868441
 30
0.0000000000000426
  0
POINT
  5
131
330
128
100
AcDbEntity
  8
Defpoints
 62
     0
100
AcDbPoint
 10
10925.41819639778
 20
-3027.965067868441
 30
-0.0000000000000426
  0
POINT
  5
132
330
128
100
AcDbEntity
  8
Defpoints
 62
     0
100
AcDbPoint
 10
10851.36337850598
 20
-3027.965067868441
 30
0.0
  0
ENDBLK
  5
133
330
128
100
AcDbEntity
  8
0
100
AcDbBlockEnd
  0
BLOCK
  5
135
330
134
100
AcDbEntity
  8
0
100
AcDbBlockBegin
  2
*D4
 70
     1
 10
0.0
 20
0.0
 30
0.0
  3
*D4
  1

  0
LINE
  5
136
330
134
100
AcDbEntity
  8
0
 62
     0
370
     9
100
AcDbLine
 10
10468.75278921989
 20
-2548.965067868441
 30
0.0
 11
10468.75278921989
 21
-2475.881017992408
 31
0.0
  0
LINE
  5
137
330
134
100
AcDbEntity
  8
0
 62
     0
370
     9
100
AcDbLine
 10
10652.7527892199
 20
-2548.965067868441
 30
0.0
 11
10652.7527892199
 21
-2475.881017992408
 31
0.0
  0
LINE
  5
138
330
134
100
AcDbEntity
  8
0
370
     9
100
AcDbLine
 10
10493.7527892199
 20
-2476.881017992408
 30
0.0
 11
10627.75278921989
 21
-2476.881017992408
 31
0.0
  0
INSERT
  5
139
330
134
100
AcDbEntity
  8
0
370
     9
100
AcDbBlockReference
  2
_Open30
 10
10468.75278921989
 20
-2476.881017992408
 30
0.0
 41
25.0
 42
25.0
 43
25.0
 50
180.0
  0
INSERT
  5
13A
330
134
100
AcDbEntity
  8
0
370
     9
100
AcDbBlockReference
  2
_Open30
 10
10652.7527892199
 20
-2476.881017992408
 30
0.0
 41
25.0
 42
25.0
 43
25.0
  0
MTEXT
  5
13B
330
134
100
AcDbEntity
  8
0
100
AcDbMText
 10
10560.7527892199
 20
-2444.381017992407
 30
0.0
 40
35.0
 41
0.0
 71
     5
 72
     1
  1
\A1;184
  7
\U+6837式 1
 73
     1
 44
1.0
1001
ACAD
1000
MTEXTBEGIN
1070
    73
1070
     1
1070
    44
1040
1.0
1070
    74
1070
     0
1000
MTEXTEND
  0
POINT
  5
13C
330
134
100
AcDbEntity
  8
Defpoints
 62
     0
100
AcDbPoint
 10
10468.75278921989
 20
-2553.965067868441
 30
0.0
  0
POINT
  5
13D
330
134
100
AcDbEntity
  8
Defpoints
 62
     0
100
AcDbPoint
 10
10652.7527892199
 20
-2553.965067868441
 30
0.0
  0
POINT
  5
13E
330
134
100
AcDbEntity
  8
Defpoints
 62
     0
100
AcDbPoint
 10
10652.7527892199
 20
-2476.881017992408
 30
0.0
  0
ENDBLK
  5
13F
330
134
100
AcDbEntity
  8
0
100
AcDbBlockEnd
  0
BLOCK
  5
141
330
140
100
AcDbEntity
  8
0
100
AcDbBlockBegin
  2
*D5
 70
     1
 10
0.0
 20
0.0
 30
0.0
  3
*D5
  1

  0
LINE
  5
142
330
140
100
AcDbEntity
  8
0
 62
     0
370
     9
100
AcDbLine
 10
10925.41819639778
 20
-3289.370828497413
 30
0.0
 11
10925.41819639778
 21
-3206.194269080708
 31
0.0
  0
LINE
  5
143
330
140
100
AcDbEntity
  8
0
 62
     0
370
     9
100
AcDbLine
 10
11325.41819639778
 20
-3289.370828497413
 30
0.0
 11
11325.41819639778
 21
-3206.194269080708
 31
0.0
  0
LINE
  5
144
330
140
100
AcDbEntity
  8
0
370
     9
100
AcDbLine
 10
10950.41819639777
 20
-3207.194269080709
 30
0.0
 11
11300.41819639777
 21
-3207.194269080709
 31
0.0
  0
INSERT
  5
145
330
140
100
AcDbEntity
  8
0
370
     9
100
AcDbBlockReference
  2
_Open30
 10
10925.41819639778
 20
-3207.194269080709
 30
0.0
 41
25.0
 42
25.0
 43
25.0
 50
180.0
  0
INSERT
  5
146
330
140
100
AcDbEntity
  8
0
370
     9
100
AcDbBlockReference
  2
_Open30
 10
11325.41819639778
 20
-3207.194269080709
 30
0.0
 41
25.0
 42
25.0
 43
25.0
  0
MTEXT
  5
147
330
140
100
AcDbEntity
  8
0
100
AcDbMText
 10
11125.41819639778
 20
-3174.694269080708
 30
0.0
 40
35.0
 41
0.0
 71
     5
 72
     1
  1
\A1;400
  7
\U+6837式 1
 73
     1
 44
1.0
1001
ACAD
1000
MTEXTBEGIN
1070
    73
1070
     1
1070
    44
1040
1.0
1070
    74
1070
     0
1000
MTEXTEND
  0
POINT
  5
148
330
140
100
AcDbEntity
  8
Defpoints
 62
     0
100
AcDbPoint
 10
10925.41819639778
 20
-3294.370828497413
 30
0.0
  0
POINT
  5
149
330
140
100
AcDbEntity
  8
Defpoints
 62
     0
100
AcDbPoint
 10
11325.41819639778
 20
-3294.370828497413
 30
0.0
  0
POINT
  5
14A
330
140
100
AcDbEntity
  8
Defpoints
 62
     0
100
AcDbPoint
 10
11325.41819639778
 20
-3207.194269080709
 30
0.0
  0
ENDBLK
  5
14B
330
140
100
AcDbEntity
  8
0
100
AcDbBlockEnd
  0
BLOCK
  5
14D
330
14C
100
AcDbEntity
  8
0
100
AcDbBlockBegin
  2
*D6
 70
     1
 10
0.0
 20
0.0
 30
0.0
  3
*D6
  1

  0
LINE
  5
14E
330
14C
100
AcDbEntity
  8
0
 62
     0
370
     9
100
AcDbLine
 10
10940.41819639778
 20
-3274.370828497413
 30
0.0
 11
10850.36337850598
 21
-3274.370828497413
 31
0.0
  0
LINE
  5
14F
330
14C
100
AcDbEntity
  8
0
 62
     0
370
     9
100
AcDbLine
 10
10940.41819639778
 20
-3458.370828497413
 30
0.0
 11
10850.36337850598
 21
-3458.370828497413
 31
0.0
  0
LINE
  5
150
330
14C
100
AcDbEntity
  8
0
370
     9
100
AcDbLine
 10
10851.36337850598
 20
-3299.370828497413
 30
0.0
 11
10851.36337850598
 21
-3433.370828497413
 31
0.0
  0
INSERT
  5
151
330
14C
100
AcDbEntity
  8
0
370
     9
100
AcDbBlockReference
  2
_Open30
 10
10851.36337850598
 20
-3274.370828497413
 30
0.0
 41
25.0
 42
25.0
 43
25.0
 50
90.0
  0
INSERT
  5
152
330
14C
100
AcDbEntity
  8
0
370
     9
100
AcDbBlockReference
  2
_Open30
 10
10851.36337850598
 20
-3458.370828497413
 30
0.0
 41
25.0
 42
25.0
 43
25.0
 50
270.0
  0
MTEXT
  5
153
330
14C
100
AcDbEntity
  8
0
100
AcDbMText
 10
10818.86337850598
 20
-3366.370828497411
 30
0.0
 40
35.0
 41
0.0
 71
     5
 72
     1
  1
\A1;184
  7
\U+6837式 1
 11
0.0000000000000001
 21
1.0
 31
0.0
 73
     1
 44
1.0
1001
ACAD
1000
MTEXTBEGIN
1070
    73
1070
     1
1070
    44
1040
1.0
1070
    74
1070
     0
1000
MTEXTEND
  0
POINT
  5
154
330
14C
100
AcDbEntity
  8
Defpoints
 62
     0
100
AcDbPoint
 10
10945.41819639778
 20
-3274.370828497413
 30
0.0
  0
POINT
  5
155
330
14C
100
AcDbEntity
  8
Defpoints
 62
     0
100
AcDbPoint
 10
10945.41819639778
 20
-3458.370828497413
 30
0.0
  0
POINT
  5
156
330
14C
100
AcDbEntity
  8
Defpoints
 62
     0
100
AcDbPoint
 10
10851.36337850598
 20
-3458.370828497413
 30
0.0
  0
ENDBLK
  5
157
330
14C
100
AcDbEntity
  8
0
100
AcDbBlockEnd
  0
BLOCK
  5
713
330
709
100
AcDbEntity
  8
0
100
AcDbBlockBegin
  2
*D8
 70
     1
 10
0.0
 20
0.0
 30
0.0
  3
*D8
  1

  0
LINE
  5
70A
330
709
100
AcDbEntity
  8
0
 62
     0
370
     9
100
AcDbLine
 10
1731.912127259074
 20
1879.79556372323
 30
0.0
 11
1731.912127259074
 21
1952.879613599264
 31
0.0
  0
LINE
  5
70B
330
709
100
AcDbEntity
  8
0
 62
     0
370
     9
100
AcDbLine
 10
2131.912127259074
 20
1879.79556372323
 30
0.0
 11
2131.912127259074
 21
1952.879613599264
 31
0.0
  0
LINE
  5
70C
330
709
100
AcDbEntity
  8
0
370
     9
100
AcDbLine
 10
1756.912127259074
 20
1951.879613599263
 30
0.0
 11
2106.912127259074
 21
1951.879613599263
 31
0.0
  0
INSERT
  5
70D
330
709
100
AcDbEntity
  8
0
370
     9
100
AcDbBlockReference
  2
_Open30
 10
1731.912127259074
 20
1951.879613599263
 30
0.0
 41
25.0
 42
25.0
 43
25.0
 50
180.0
  0
INSERT
  5
70E
330
709
100
AcDbEntity
  8
0
370
     9
100
AcDbBlockReference
  2
_Open30
 10
2131.912127259074
 20
1951.879613599263
 30
0.0
 41
25.0
 42
25.0
 43
25.0
  0
MTEXT
  5
70F
330
709
100
AcDbEntity
  8
0
100
AcDbMText
 10
1931.912127259074
 20
1984.379613599264
 30
0.0
 40
35.0
 41
0.0
 71
     5
 72
     1
  1
\A1;400
  7
\U+6837式 1
 73
     1
 44
1.0
1001
ACAD
1000
MTEXTBEGIN
1070
    73
1070
     1
1070
    44
1040
1.0
1070
    74
1070
     0
1000
MTEXTEND
  0
POINT
  5
710
330
709
100
AcDbEntity
  8
Defpoints
 62
     0
100
AcDbPoint
 10
1731.912127259074
 20
1874.79556372323
 30
0.0000000000000426
  0
POINT
  5
711
330
709
100
AcDbEntity
  8
Defpoints
 62
     0
100
AcDbPoint
 10
2131.912127259074
 20
1874.79556372323
 30
0.0000000000000426
  0
POINT
  5
712
330
709
100
AcDbEntity
  8
Defpoints
 62
     0
100
AcDbPoint
 10
2131.912127259074
 20
1951.879613599263
 30
0.0
  0
ENDBLK
  5
714
330
709
100
AcDbEntity
  8
0
100
AcDbBlockEnd
  0
BLOCK
  5
71F
330
715
100
AcDbEntity
  8
0
100
AcDbBlockBegin
  2
*D9
 70
     1
 10
0.0
 20
0.0
 30
0.0
  3
*D9
  1

  0
LINE
  5
716
330
715
100
AcDbEntity
  8
0
 62
     0
370
     9
100
AcDbLine
 10
1726.912127259074
 20
1874.79556372323
 30
0.0
 11
1656.857309367281
 21
1874.79556372323
 31
0.0
  0
LINE
  5
717
330
715
100
AcDbEntity
  8
0
 62
     0
370
     9
100
AcDbLine
 10
1726.912127259074
 20
1400.79556372323
 30
0.0
 11
1656.857309367281
 21
1400.79556372323
 31
0.0
  0
LINE
  5
718
330
715
100
AcDbEntity
  8
0
370
     9
100
AcDbLine
 10
1657.857309367281
 20
1849.79556372323
 30
0.0
 11
1657.857309367281
 21
1425.79556372323
 31
0.0
  0
INSERT
  5
719
330
715
100
AcDbEntity
  8
0
370
     9
100
AcDbBlockReference
  2
_Open30
 10
1657.857309367281
 20
1874.79556372323
 30
0.0
 41
25.0
 42
25.0
 43
25.0
 50
90.0
  0
INSERT
  5
71A
330
715
100
AcDbEntity
  8
0
370
     9
100
AcDbBlockReference
  2
_Open30
 10
1657.857309367281
 20
1400.79556372323
 30
0.0
 41
25.0
 42
25.0
 43
25.0
 50
270.0
  0
MTEXT
  5
71B
330
715
100
AcDbEntity
  8
0
100
AcDbMText
 10
1625.357309367281
 20
1637.795563723231
 30
0.0
 40
35.0
 41
0.0
 71
     5
 72
     1
  1
\A1;474
  7
\U+6837式 1
 11
0.0000000000000001
 21
1.0
 31
0.0
 73
     1
 44
1.0
1001
ACAD
1000
MTEXTBEGIN
1070
    73
1070
     1
1070
    44
1040
1.0
1070
    74
1070
     0
1000
MTEXTEND
  0
POINT
  5
71C
330
715
100
AcDbEntity
  8
Defpoints
 62
     0
100
AcDbPoint
 10
1731.912127259074
 20
1874.79556372323
 30
0.0000000000000426
  0
POINT
  5
71D
330
715
100
AcDbEntity
  8
Defpoints
 62
     0
100
AcDbPoint
 10
1731.912127259074
 20
1400.79556372323
 30
-0.0000000000000426
  0
POINT
  5
71E
330
715
100
AcDbEntity
  8
Defpoints
 62
     0
100
AcDbPoint
 10
1657.857309367281
 20
1400.79556372323
 30
0.0
  0
ENDBLK
  5
720
330
715
100
AcDbEntity
  8
0
100
AcDbBlockEnd
  0
BLOCK
  5
72B
330
721
100
AcDbEntity
  8
0
100
AcDbBlockBegin
  2
*D10
 70
     1
 10
0.0
 20
0.0
 30
0.0
  3
*D10
  1

  0
LINE
  5
722
330
721
100
AcDbEntity
  8
0
 62
     0
370
     9
100
AcDbLine
 10
1275.246720081194
 20
1879.79556372323
 30
0.0
 11
1275.246720081194
 21
1952.879613599264
 31
0.0
  0
LINE
  5
723
330
721
100
AcDbEntity
  8
0
 62
     0
370
     9
100
AcDbLine
 10
1459.246720081194
 20
1879.79556372323
 30
0.0
 11
1459.246720081194
 21
1952.879613599264
 31
0.0
  0
LINE
  5
724
330
721
100
AcDbEntity
  8
0
370
     9
100
AcDbLine
 10
1300.246720081194
 20
1951.879613599263
 30
0.0
 11
1434.246720081194
 21
1951.879613599263
 31
0.0
  0
INSERT
  5
725
330
721
100
AcDbEntity
  8
0
370
     9
100
AcDbBlockReference
  2
_Open30
 10
1275.246720081194
 20
1951.879613599263
 30
0.0
 41
25.0
 42
25.0
 43
25.0
 50
180.0
  0
INSERT
  5
726
330
721
100
AcDbEntity
  8
0
370
     9
100
AcDbBlockReference
  2
_Open30
 10
1459.246720081194
 20
1951.879613599263
 30
0.0
 41
25.0
 42
25.0
 43
25.0
  0
MTEXT
  5
727
330
721
100
AcDbEntity
  8
0
100
AcDbMText
 10
1367.246720081194
 20
1984.379613599264
 30
0.0
 40
35.0
 41
0.0
 71
     5
 72
     1
  1
\A1;184
  7
\U+6837式 1
 73
     1
 44
1.0
1001
ACAD
1000
MTEXTBEGIN
1070
    73
1070
     1
1070
    44
1040
1.0
1070
    74
1070
     0
1000
MTEXTEND
  0
POINT
  5
728
330
721
100
AcDbEntity
  8
Defpoints
 62
     0
100
AcDbPoint
 10
1275.246720081194
 20
1874.79556372323
 30
0.0
  0
POINT
  5
729
330
721
100
AcDbEntity
  8
Defpoints
 62
     0
100
AcDbPoint
 10
1459.246720081194
 20
1874.79556372323
 30
0.0
  0
POINT
  5
72A
330
721
100
AcDbEntity
  8
Defpoints
 62
     0
100
AcDbPoint
 10
1459.246720081194
 20
1951.879613599263
 30
0.0
  0
ENDBLK
  5
72C
330
721
100
AcDbEntity
  8
0
100
AcDbBlockEnd
  0
BLOCK
  5
737
330
72D
100
AcDbEntity
  8
0
100
AcDbBlockBegin
  2
*D11
 70
     1
 10
0.0
 20
0.0
 30
0.0
  3
*D11
  1

  0
LINE
  5
72E
330
72D
100
AcDbEntity
  8
0
 62
     0
370
     9
100
AcDbLine
 10
1731.912127259074
 20
1139.389803094259
 30
0.0
 11
1731.912127259074
 21
1222.566362510963
 31
0.0
  0
LINE
  5
72F
330
72D
100
AcDbEntity
  8
0
 62
     0
370
     9
100
AcDbLine
 10
2131.912127259074
 20
1139.389803094259
 30
0.0
 11
2131.912127259074
 21
1222.566362510963
 31
0.0
  0
LINE
  5
730
330
72D
100
AcDbEntity
  8
0
370
     9
100
AcDbLine
 10
1756.912127259074
 20
1221.566362510963
 30
0.0
 11
2106.912127259074
 21
1221.566362510963
 31
0.0
  0
INSERT
  5
731
330
72D
100
AcDbEntity
  8
0
370
     9
100
AcDbBlockReference
  2
_Open30
 10
1731.912127259074
 20
1221.566362510963
 30
0.0
 41
25.0
 42
25.0
 43
25.0
 50
180.0
  0
INSERT
  5
732
330
72D
100
AcDbEntity
  8
0
370
     9
100
AcDbBlockReference
  2
_Open30
 10
2131.912127259074
 20
1221.566362510963
 30
0.0
 41
25.0
 42
25.0
 43
25.0
  0
MTEXT
  5
733
330
72D
100
AcDbEntity
  8
0
100
AcDbMText
 10
1931.912127259074
 20
1254.066362510963
 30
0.0
 40
35.0
 41
0.0
 71
     5
 72
     1
  1
\A1;400
  7
\U+6837式 1
 73
     1
 44
1.0
1001
ACAD
1000
MTEXTBEGIN
1070
    73
1070
     1
1070
    44
1040
1.0
1070
    74
1070
     0
1000
MTEXTEND
  0
POINT
  5
734
330
72D
100
AcDbEntity
  8
Defpoints
 62
     0
100
AcDbPoint
 10
1731.912127259074
 20
1134.389803094258
 30
0.0
  0
POINT
  5
735
330
72D
100
AcDbEntity
  8
Defpoints
 62
     0
100
AcDbPoint
 10
2131.912127259074
 20
1134.389803094258
 30
0.0
  0
POINT
  5
736
330
72D
100
AcDbEntity
  8
Defpoints
 62
     0
100
AcDbPoint
 10
2131.912127259074
 20
1221.566362510963
 30
0.0
  0
ENDBLK
  5
738
330
72D
100
AcDbEntity
  8
0
100
AcDbBlockEnd
  0
BLOCK
  5
743
330
739
100
AcDbEntity
  8
0
100
AcDbBlockBegin
  2
*D12
 70
     1
 10
0.0
 20
0.0
 30
0.0
  3
*D12
  1

  0
LINE
  5
73A
330
739
100
AcDbEntity
  8
0
 62
     0
370
     9
100
AcDbLine
 10
1746.912127259073
 20
1154.389803094258
 30
0.0
 11
1656.857309367281
 21
1154.389803094258
 31
0.0
  0
LINE
  5
73B
330
739
100
AcDbEntity
  8
0
 62
     0
370
     9
100
AcDbLine
 10
1746.912127259075
 20
970.3898030942587
 30
0.0
 11
1656.857309367281
 21
970.3898030942587
 31
0.0
  0
LINE
  5
73C
330
739
100
AcDbEntity
  8
0
370
     9
100
AcDbLine
 10
1657.857309367281
 20
1129.389803094259
 30
0.0
 11
1657.857309367281
 21
995.3898030942587
 31
0.0
  0
INSERT
  5
73D
330
739
100
AcDbEntity
  8
0
370
     9
100
AcDbBlockReference
  2
_Open30
 10
1657.857309367281
 20
1154.389803094258
 30
0.0
 41
25.0
 42
25.0
 43
25.0
 50
90.0
  0
INSERT
  5
73E
330
739
100
AcDbEntity
  8
0
370
     9
100
AcDbBlockReference
  2
_Open30
 10
1657.857309367281
 20
970.3898030942587
 30
0.0
 41
25.0
 42
25.0
 43
25.0
 50
270.0
  0
MTEXT
  5
73F
330
739
100
AcDbEntity
  8
0
100
AcDbMText
 10
1625.357309367281
 20
1062.389803094259
 30
0.0
 40
35.0
 41
0.0
 71
     5
 72
     1
  1
\A1;184
  7
\U+6837式 1
 11
0.0000000000000001
 21
1.0
 31
0.0
 73
     1
 44
1.0
1001
ACAD
1000
MTEXTBEGIN
1070
    73
1070
     1
1070
    44
1040
1.0
1070
    74
1070
     0
1000
MTEXTEND
  0
POINT
  5
740
330
739
100
AcDbEntity
  8
Defpoints
 62
     0
100
AcDbPoint
 10
1751.912127259074
 20
1154.389803094258
 30
0.0
  0
POINT
  5
741
330
739
100
AcDbEntity
  8
Defpoints
 62
     0
100
AcDbPoint
 10
1751.912127259075
 20
970.3898030942587
 30
0.0
  0
POINT
  5
742
330
739
100
AcDbEntity
  8
Defpoints
 62
     0
100
AcDbPoint
 10
1657.857309367281
 20
970.3898030942587
 30
0.0
  0
ENDBLK
  5
744
330
739
100
AcDbEntity
  8
0
100
AcDbBlockEnd
  0
ENDSEC
  0
SECTION
  2
ENTITIES
  0
ARC
  5
437
330
1F
100
AcDbEntity
  8
0
100
AcDbCircle
 10
1751.912127259075
 20
2285.2013243522
 30
0.0
 40
20.0
100
AcDbArc
 50
90.0
 51
180.0
  0
LINE
  5
438
330
1F
100
AcDbEntity
  8
0
100
AcDbLine
 10
1751.912127259075
 20
2305.2013243522
 30
0.0
 11
2111.912127259076
 21
2305.2013243522
 31
0.0
  0
ARC
  5
439
330
1F
100
AcDbEntity
  8
0
100
AcDbCircle
 10
2111.912127259076
 20
2285.2013243522
 30
0.0
 40
20.0
100
AcDbArc
 50
0.0
 51
90.0
  0
LINE
  5
43A
330
1F
100
AcDbEntity
  8
0
100
AcDbLine
 10
2131.912127259075
 20
2285.2013243522
 30
0.0
 11
2131.912127259074
 21
2141.2013243522
 31
0.0
  0
ARC
  5
43B
330
1F
100
AcDbEntity
  8
0
100
AcDbCircle
 10
2111.912127259074
 20
2141.2013243522
 30
0.0
 40
20.0
100
AcDbArc
 50
270.0
 51
0.0
  0
LINE
  5
43C
330
1F
100
AcDbEntity
  8
0
100
AcDbLine
 10
2111.912127259074
 20
2121.2013243522
 30
0.0
 11
1751.912127259074
 21
2121.2013243522
 31
0.0
  0
LINE
  5
43D
330
1F
100
AcDbEntity
  8
0
100
AcDbLine
 10
1731.912127259074
 20
2141.2013243522
 30
0.0
 11
1731.912127259075
 21
2285.2013243522
 31
0.0
  0
ARC
  5
43E
330
1F
100
AcDbEntity
  8
0
100
AcDbCircle
 10
1751.912127259074
 20
2141.2013243522
 30
0.0
 40
20.0
100
AcDbArc
 50
180.0
 51
270.0
  0
LINE
  5
43F
330
1F
100
AcDbEntity
  8
0
100
AcDbLine
 10
1986.912127259074
 20
2206.2013243522
 30
0.0
 11
1876.912127259074
 21
2206.2013243522
 31
0.0
  0
ARC
  5
440
330
1F
100
AcDbEntity
  8
0
100
AcDbCircle
 10
1986.912127259074
 20
2211.2013243522
 30
0.0
 40
5.0
100
AcDbArc
 50
270.0
 51
0.0
  0
LINE
  5
441
330
1F
100
AcDbEntity
  8
0
100
AcDbLine
 10
1871.912127259074
 20
2211.2013243522
 30
0.0
 11
1871.912127259074
 21
2251.2013243522
 31
0.0
  0
ARC
  5
442
330
1F
100
AcDbEntity
  8
0
100
AcDbCircle
 10
1876.912127259074
 20
2211.2013243522
 30
0.0
 40
5.0
100
AcDbArc
 50
180.0
 51
270.0
  0
LINE
  5
443
330
1F
100
AcDbEntity
  8
0
100
AcDbLine
 10
1991.912127259073
 20
2251.2013243522
 30
0.0
 11
1991.912127259073
 21
2211.2013243522
 31
0.0
  0
ARC
  5
444
330
1F
100
AcDbEntity
  8
0
100
AcDbCircle
 10
1986.912127259074
 20
2251.2013243522
 30
0.0
 40
5.0
100
AcDbArc
 50
0.0
 51
90.0
  0
LINE
  5
445
330
1F
100
AcDbEntity
  8
0
100
AcDbLine
 10
1876.912127259075
 20
2256.2013243522
 30
0.0
 11
1986.912127259076
 21
2256.2013243522
 31
0.0
  0
ARC
  5
446
330
1F
100
AcDbEntity
  8
0
100
AcDbCircle
 10
1876.912127259074
 20
2251.2013243522
 30
0.0
 40
5.0
100
AcDbArc
 50
90.0
 51
180.0
  0
CIRCLE
  5
447
330
1F
100
AcDbEntity
  8
0
100
AcDbCircle
 10
1911.912127259016
 20
2231.2013243522
 30
0.0
 40
11.8
  0
LINE
  5
448
330
1F
100
AcDbEntity
  8
0
100
AcDbLine
 10
1902.412127258961
 20
2215.7013243522
 30
0.0
 11
1921.412127259008
 21
2215.7013243522
 31
0.0
  0
SPLINE
  5
449
330
1F
100
AcDbEntity
  8
0
100
AcDbSpline
210
0.0
220
0.0
230
1.0
 70
     8
 71
     3
 72
    14
 73
    10
 74
     0
 42
0.0000000001
 43
0.0000000001
 40
3.411573537843962
 40
3.411573537843962
 40
3.411573537843962
 40
3.411573537843962
 40
3.784673895549379
 40
3.784673895549379
 40
4.157774253254796
 40
4.157774253254796
 40
4.604898162464325
 40
4.604898162464325
 40
5.052022071673852
 40
5.052022071673852
 40
5.052022071673852
 40
5.052022071673852
 10
1900.787319578058
 20
2216.1013243522
 30
0.0
 10
1900.89747301696
 20
2216.043589463929
 30
0.0
 10
1901.02060154101
 20
2215.987035911365
 30
0.0
 10
1901.270704866884
 20
2215.889957739963
 30
0.0
 10
1901.397710621418
 20
2215.849388983063
 30
0.0
 10
1901.653676369376
 20
2215.781442242962
 30
0.0
 10
1901.807478478152
 20
2215.750439266351
 30
0.0
 10
1902.116070046354
 20
2215.710399248088
 30
0.0
 10
1902.270935822223
 20
2215.701324352199
 30
0.0
 10
1902.412127258957
 20
2215.7013243522
 30
0.0
  0
SPLINE
  5
44A
330
1F
100
AcDbEntity
  8
0
100
AcDbSpline
210
0.0
220
0.0
230
1.0
 70
     8
 71
     3
 72
    14
 73
    10
 74
     0
 42
0.0000000001
 43
0.0000000001
 40
0.0
 40
0.0
 40
0.0
 40
0.0
 40
0.447123909234365
 40
0.447123909234365
 40
0.8942478184687299
 40
0.8942478184687299
 40
1.267348176174323
 40
1.267348176174323
 40
1.640448533879917
 40
1.640448533879917
 40
1.640448533879917
 40
1.640448533879917
 10
1902.412127259044
 20
2246.7013243522
 30
0.0
 10
1902.270935822252
 20
2246.7013243522
 30
0.0
 10
1902.116070046296
 20
2246.692249456301
 30
0.0
 10
1901.807478478065
 20
2246.652209438024
 30
0.0
 10
1901.653676369376
 20
2246.621206461433
 30
0.0
 10
1901.397710621389
 20
2246.553259721327
 30
0.0
 10
1901.270704866943
 20
2246.512690964421
 30
0.0
 10
1901.02060154101
 20
2246.415612793004
 30
0.0
 10
1900.897473017076
 20
2246.35905924048
 30
0.0
 10
1900.787319578117
 20
2246.3013243522
 30
0.0
  0
LINE
  5
44B
330
1F
100
AcDbEntity
  8
0
100
AcDbLine
 10
1921.41212725907
 20
2246.7013243522
 30
0.0
 11
1902.412127259023
 21
2246.7013243522
 31
0.0
  0
ARC
  5
44C
330
1F
100
AcDbEntity
  8
0
100
AcDbCircle
 10
1921.412127259015
 20
2219.2013243522
 30
0.0
 40
3.499999999999999
100
AcDbArc
 50
270.0
 51
0.0
  0
LINE
  5
44D
330
1F
100
AcDbEntity
  8
0
100
AcDbLine
 10
1924.912127259045
 20
2219.2013243522
 30
0.0
 11
1924.912127259045
 21
2243.2013243522
 31
0.0
  0
ARC
  5
44E
330
1F
100
AcDbEntity
  8
0
100
AcDbCircle
 10
1921.412127259074
 20
2243.2013243522
 30
0.0
 40
3.499999999999999
100
AcDbArc
 50
0.0
 51
90.0
  0
CIRCLE
  5
44F
330
1F
100
AcDbEntity
  8
0
100
AcDbCircle
 10
1921.412127259045
 20
2243.2013243522
 30
0.0
 40
1.75
  0
CIRCLE
  5
450
330
1F
100
AcDbEntity
  8
0
100
AcDbCircle
 10
1902.412127259044
 20
2219.2013243522
 30
0.0
 40
1.75
  0
CIRCLE
  5
451
330
1F
100
AcDbEntity
  8
0
100
AcDbCircle
 10
1902.412127259044
 20
2219.2013243522
 30
0.0
 40
2.999999999953478
  0
CIRCLE
  5
452
330
1F
100
AcDbEntity
  8
0
100
AcDbCircle
 10
1921.412127259074
 20
2243.2013243522
 30
0.0
 40
2.999999999970632
  0
ARC
  5
453
330
1F
100
AcDbEntity
  8
0
100
AcDbCircle
 10
1902.412127258986
 20
2219.2013243522
 30
0.0
 40
3.499999999999999
100
AcDbArc
 50
180.0
 51
242.3395501007878
  0
LINE
  5
454
330
1F
100
AcDbEntity
  8
0
100
AcDbLine
 10
1898.912127259044
 20
2219.2013243522
 30
0.0
 11
1898.912127259044
 21
2243.2013243522
 31
0.0
  0
ARC
  5
455
330
1F
100
AcDbEntity
  8
0
100
AcDbCircle
 10
1902.412127259015
 20
2243.2013243522
 30
0.0
 40
3.499999999999999
100
AcDbArc
 50
117.6604498988626
 51
180.0
  0
CIRCLE
  5
456
330
1F
100
AcDbEntity
  8
0
100
AcDbCircle
 10
1951.912127259015
 20
2231.2013243522
 30
0.0
 40
11.8
  0
LINE
  5
457
330
1F
100
AcDbEntity
  8
0
100
AcDbLine
 10
1942.412127258961
 20
2215.7013243522
 30
0.0
 11
1961.412127259008
 21
2215.7013243522
 31
0.0
  0
SPLINE
  5
458
330
1F
100
AcDbEntity
  8
0
100
AcDbSpline
210
0.0
220
0.0
230
1.0
 70
     8
 71
     3
 72
    14
 73
    10
 74
     0
 42
0.0000000001
 43
0.0000000001
 40
3.411573537843962
 40
3.411573537843962
 40
3.411573537843962
 40
3.411573537843962
 40
3.784673895549379
 40
3.784673895549379
 40
4.157774253254796
 40
4.157774253254796
 40
4.604898162464325
 40
4.604898162464325
 40
5.052022071673852
 40
5.052022071673852
 40
5.052022071673852
 40
5.052022071673852
 10
1940.787319578058
 20
2216.1013243522
 30
0.0
 10
1940.89747301696
 20
2216.043589463929
 30
0.0
 10
1941.02060154101
 20
2215.987035911365
 30
0.0
 10
1941.270704866884
 20
2215.889957739963
 30
0.0
 10
1941.397710621418
 20
2215.849388983063
 30
0.0
 10
1941.653676369375
 20
2215.781442242962
 30
0.0
 10
1941.807478478152
 20
2215.750439266351
 30
0.0
 10
1942.116070046354
 20
2215.710399248088
 30
0.0
 10
1942.270935822223
 20
2215.701324352199
 30
0.0
 10
1942.412127258957
 20
2215.7013243522
 30
0.0
  0
SPLINE
  5
459
330
1F
100
AcDbEntity
  8
0
100
AcDbSpline
210
0.0
220
0.0
230
1.0
 70
     8
 71
     3
 72
    14
 73
    10
 74
     0
 42
0.0000000001
 43
0.0000000001
 40
0.0
 40
0.0
 40
0.0
 40
0.0
 40
0.447123909234365
 40
0.447123909234365
 40
0.8942478184687299
 40
0.8942478184687299
 40
1.267348176174323
 40
1.267348176174323
 40
1.640448533879917
 40
1.640448533879917
 40
1.640448533879917
 40
1.640448533879917
 10
1942.412127259045
 20
2246.7013243522
 30
0.0
 10
1942.270935822252
 20
2246.7013243522
 30
0.0
 10
1942.116070046296
 20
2246.692249456301
 30
0.0
 10
1941.807478478065
 20
2246.652209438024
 30
0.0
 10
1941.653676369375
 20
2246.621206461433
 30
0.0
 10
1941.397710621389
 20
2246.553259721327
 30
0.0
 10
1941.270704866943
 20
2246.512690964421
 30
0.0
 10
1941.02060154101
 20
2246.415612793004
 30
0.0
 10
1940.897473017076
 20
2246.35905924048
 30
0.0
 10
1940.787319578117
 20
2246.3013243522
 30
0.0
  0
LINE
  5
45A
330
1F
100
AcDbEntity
  8
0
100
AcDbLine
 10
1961.41212725907
 20
2246.7013243522
 30
0.0
 11
1942.412127259023
 21
2246.7013243522
 31
0.0
  0
ARC
  5
45B
330
1F
100
AcDbEntity
  8
0
100
AcDbCircle
 10
1961.412127259015
 20
2219.2013243522
 30
0.0
 40
3.499999999999999
100
AcDbArc
 50
270.0
 51
0.0
  0
LINE
  5
45C
330
1F
100
AcDbEntity
  8
0
100
AcDbLine
 10
1964.912127259044
 20
2219.2013243522
 30
0.0
 11
1964.912127259044
 21
2243.2013243522
 31
0.0
  0
ARC
  5
45D
330
1F
100
AcDbEntity
  8
0
100
AcDbCircle
 10
1961.412127259073
 20
2243.2013243522
 30
0.0
 40
3.499999999999999
100
AcDbArc
 50
0.0
 51
90.0
  0
CIRCLE
  5
45E
330
1F
100
AcDbEntity
  8
0
100
AcDbCircle
 10
1961.412127259044
 20
2243.2013243522
 30
0.0
 40
1.75
  0
CIRCLE
  5
45F
330
1F
100
AcDbEntity
  8
0
100
AcDbCircle
 10
1942.412127259045
 20
2219.2013243522
 30
0.0
 40
1.75
  0
CIRCLE
  5
460
330
1F
100
AcDbEntity
  8
0
100
AcDbCircle
 10
1942.412127259045
 20
2219.2013243522
 30
0.0
 40
2.999999999953478
  0
CIRCLE
  5
461
330
1F
100
AcDbEntity
  8
0
100
AcDbCircle
 10
1961.412127259073
 20
2243.2013243522
 30
0.0
 40
2.999999999970632
  0
ARC
  5
462
330
1F
100
AcDbEntity
  8
0
100
AcDbCircle
 10
1942.412127258986
 20
2219.2013243522
 30
0.0
 40
3.499999999999999
100
AcDbArc
 50
180.0
 51
242.3395501007878
  0
LINE
  5
463
330
1F
100
AcDbEntity
  8
0
100
AcDbLine
 10
1938.912127259045
 20
2219.2013243522
 30
0.0
 11
1938.912127259045
 21
2243.2013243522
 31
0.0
  0
ARC
  5
464
330
1F
100
AcDbEntity
  8
0
100
AcDbCircle
 10
1942.412127259015
 20
2243.2013243522
 30
0.0
 40
3.499999999999999
100
AcDbArc
 50
117.6604498988626
 51
180.0
  0
LINE
  5
465
330
1F
100
AcDbEntity
  8
0
100
AcDbLine
 10
2424.577534436953
 20
1412.79556372323
 30
0.0
 11
2568.577534436953
 21
1412.79556372323
 31
0.0
210
0.0000000000000001
220
-1.0
230
-0.0000000000000002
  0
LINE
  5
466
330
1F
100
AcDbEntity
  8
0
100
AcDbLine
 10
2568.577534436953
 20
1412.79556372323
 30
0.0
 11
2588.577534436953
 21
1412.79556372323
 31
0.0
210
0.0000000000000001
220
-1.0
230
-0.0000000000000002
  0
LINE
  5
467
330
1F
100
AcDbEntity
  8
0
100
AcDbLine
 10
2404.577534436953
 20
1400.79556372323
 30
0.0
 11
2404.577534436953
 21
1412.79556372323
 31
0.0
210
0.0000000000000001
220
-1.0
230
-0.0000000000000002
  0
LINE
  5
468
330
1F
100
AcDbEntity
  8
0
100
AcDbLine
 10
2404.577534436953
 20
1412.79556372323
 30
0.0
 11
2424.577534436953
 21
1412.79556372323
 31
0.0
210
0.0000000000000001
220
-1.0
230
-0.0000000000000002
  0
LINE
  5
469
330
1F
100
AcDbEntity
  8
0
100
AcDbLine
 10
2588.577534436953
 20
1412.79556372323
 30
0.0
 11
2588.577534436953
 21
1400.79556372323
 31
0.0
210
0.0000000000000001
220
-1.0
230
-0.0000000000000002
  0
LINE
  5
46A
330
1F
100
AcDbEntity
  8
0
100
AcDbLine
 10
2588.577534436953
 20
1400.79556372323
 30
0.0
 11
2568.577534436953
 21
1400.79556372323
 31
0.0
210
0.0000000000000001
220
-1.0
230
-0.0000000000000002
  0
LINE
  5
46B
330
1F
100
AcDbEntity
  8
0
100
AcDbLine
 10
2568.577534436953
 20
1400.79556372323
 30
0.0
 11
2424.577534436953
 21
1400.79556372323
 31
0.0
210
0.0000000000000001
220
-1.0
230
-0.0000000000000002
  0
LINE
  5
46C
330
1F
100
AcDbEntity
  8
0
100
AcDbLine
 10
2424.577534436953
 20
1400.79556372323
 30
0.0
 11
2404.577534436953
 21
1400.79556372323
 31
0.0
210
0.0000000000000001
220
-1.0
230
-0.0000000000000002
  0
LINE
  5
46D
330
1F
100
AcDbEntity
  8
0
100
AcDbLine
 10
2404.577534436953
 20
1412.79556372323
 30
0.0
 11
2404.577534436953
 21
1862.79556372323
 31
0.0
210
0.0000000000000001
220
-1.0
230
-0.0000000000000002
  0
LINE
  5
46E
330
1F
100
AcDbEntity
  8
0
100
AcDbLine
 10
2416.577534436954
 20
1862.79556372323
 30
0.0
 11
2416.577534436954
 21
1412.79556372323
 31
0.0
210
0.0000000000000001
220
-1.0
230
-0.0000000000000002
  0
LINE
  5
46F
330
1F
100
AcDbEntity
  8
0
100
AcDbLine
 10
2588.577534436953
 20
1874.79556372323
 30
0.0
 11
2588.577534436953
 21
1862.79556372323
 31
0.0
210
0.0000000000000001
220
-1.0
230
-0.0000000000000002
  0
LINE
  5
470
330
1F
100
AcDbEntity
  8
0
100
AcDbLine
 10
2588.577534436953
 20
1862.79556372323
 30
0.0
 11
2568.577534436953
 21
1862.79556372323
 31
0.0
210
0.0000000000000001
220
-1.0
230
-0.0000000000000002
  0
LINE
  5
471
330
1F
100
AcDbEntity
  8
0
100
AcDbLine
 10
2424.577534436953
 20
1862.79556372323
 30
0.0
 11
2568.577534436953
 21
1862.79556372323
 31
0.0
210
0.0000000000000001
220
-1.0
230
-0.0000000000000002
  0
LINE
  5
472
330
1F
100
AcDbEntity
  8
0
100
AcDbLine
 10
2404.577534436953
 20
1862.79556372323
 30
0.0
 11
2404.577534436953
 21
1874.79556372323
 31
0.0
210
0.0000000000000001
220
-1.0
230
-0.0000000000000002
  0
LINE
  5
473
330
1F
100
AcDbEntity
  8
0
100
AcDbLine
 10
2424.577534436953
 20
1862.79556372323
 30
0.0
 11
2404.577534436953
 21
1862.79556372323
 31
0.0
210
0.0000000000000001
220
-1.0
230
-0.0000000000000002
  0
LINE
  5
474
330
1F
100
AcDbEntity
  8
0
100
AcDbLine
 10
2404.577534436953
 20
1874.79556372323
 30
0.0
 11
2424.577534436953
 21
1874.79556372323
 31
0.0
210
0.0000000000000001
220
-1.0
230
-0.0000000000000002
  0
LINE
  5
475
330
1F
100
AcDbEntity
  8
0
100
AcDbLine
 10
2568.577534436953
 20
1874.79556372323
 30
0.0
 11
2424.577534436953
 21
1874.79556372323
 31
0.0
210
0.0000000000000001
220
-1.0
230
-0.0000000000000002
  0
LINE
  5
476
330
1F
100
AcDbEntity
  8
0
100
AcDbLine
 10
2568.577534436953
 20
1874.79556372323
 30
0.0
 11
2588.577534436953
 21
1874.79556372323
 31
0.0
210
0.0000000000000001
220
-1.0
230
-0.0000000000000002
  0
LINE
  5
477
330
1F
100
AcDbEntity
  8
0
100
AcDbLine
 10
2588.577534436953
 20
1412.79556372323
 30
0.0
 11
2588.577534436953
 21
1862.79556372323
 31
0.0
210
0.0000000000000001
220
-1.0
230
-0.0000000000000002
  0
LINE
  5
478
330
1F
100
AcDbEntity
  8
0
100
AcDbLine
 10
2576.577534436953
 20
1862.79556372323
 30
0.0
 11
2576.577534436953
 21
1412.79556372323
 31
0.0
210
0.0000000000000001
220
-1.0
230
-0.0000000000000002
  0
LINE
  5
479
330
1F
100
AcDbEntity
  8
0
100
AcDbLine
 10
2421.577534436953
 20
1852.79556372323
 30
0.0
 11
2421.577534436953
 21
1422.79556372323
 31
0.0
210
0.0000000000000001
220
-1.0
230
-0.0000000000000002
  0
HATCH
  5
47A
330
1F
100
AcDbEntity
  8
0
370
     5
100
AcDbHatch
 10
0.0
 20
0.0
 30
972.6397571985543
210
0.0
220
0.0
230
1.0
  2
HEX
 70
     0
 71
     0
 91
        1
 92
        1
 93
        4
 72
     1
 10
2566.577534436953
 20
1852.79556372323
 11
2426.577534436953
 21
1852.79556372323
 72
     1
 10
2426.577534436953
 20
1852.79556372323
 11
2426.577534436953
 21
1422.79556372323
 72
     1
 10
2426.577534436953
 20
1422.79556372323
 11
2566.577534436953
 21
1422.79556372323
 72
     1
 10
2566.577534436953
 20
1422.79556372323
 11
2566.577534436953
 21
1852.79556372323
 97
        0
 75
     0
 76
     1
 52
0.0
 41
0.5
 77
     0
 78
     3
 53
0.0
 43
4393.728817160149
 44
725.1654752647542
 45
0.0
 46
2.749629999999999
 79
     2
 49
1.587499999999999
 49
-3.174999999999999
 53
120.0
 43
4393.728817160149
 44
725.1654752647542
 45
-2.381249431007805
 46
-1.374814999999999
 79
     2
 49
1.587499999999997
 49
-3.174999999999995
 53
60.0
 43
4395.316317160149
 44
725.1654752647542
 45
-2.381249431007805
 46
1.374815
 79
     2
 49
1.587499999999999
 49
-3.174999999999999
 98
        1
 10
4393.728817160149
 20
725.1654752647542
1001
ACAD
1010
0.0
1020
0.0
1030
0.0
  0
ARC
  5
47B
330
1F
100
AcDbEntity
  8
0
100
AcDbCircle
 10
-2426.577534436953
 20
1422.79556372323
 30
0.0000000000002614
 40
5.0
210
0.0
220
0.0000000000000002
230
-1.0
100
AcDbArc
 50
270.0
 51
0.0
  0
LINE
  5
47C
330
1F
100
AcDbEntity
  8
0
100
AcDbLine
 10
2426.577534436953
 20
1417.79556372323
 30
0.0
 11
2566.577534436953
 21
1417.79556372323
 31
0.0
210
0.0000000000000001
220
-1.0
230
-0.0000000000000002
  0
ARC
  5
47D
330
1F
100
AcDbEntity
  8
0
100
AcDbCircle
 10
-2566.577534436953
 20
1422.79556372323
 30
0.0000000000002614
 40
5.0
210
0.0
220
0.0000000000000002
230
-1.0
100
AcDbArc
 50
180.0
 51
270.0
  0
LINE
  5
47E
330
1F
100
AcDbEntity
  8
0
100
AcDbLine
 10
2571.577534436953
 20
1422.79556372323
 30
0.0
 11
2571.577534436953
 21
1852.79556372323
 31
0.0
210
0.0000000000000001
220
-1.0
230
-0.0000000000000002
  0
ARC
  5
47F
330
1F
100
AcDbEntity
  8
0
100
AcDbCircle
 10
-2566.577534436953
 20
1852.79556372323
 30
0.0000000000003404
 40
5.0
210
0.0
220
0.0000000000000002
230
-1.0
100
AcDbArc
 50
90.0
 51
180.0
  0
LINE
  5
480
330
1F
100
AcDbEntity
  8
0
100
AcDbLine
 10
2566.577534436953
 20
1857.79556372323
 30
0.0
 11
2426.577534436953
 21
1857.79556372323
 31
0.0
210
0.0000000000000001
220
-1.0
230
-0.0000000000000002
  0
ARC
  5
481
330
1F
100
AcDbEntity
  8
0
100
AcDbCircle
 10
-2426.577534436953
 20
1852.79556372323
 30
0.0000000000003404
 40
5.0
210
0.0
220
0.0000000000000002
230
-1.0
100
AcDbArc
 50
0.0
 51
90.0
  0
LINE
  5
482
330
1F
100
AcDbEntity
  8
0
100
AcDbLine
 10
2111.912127259074
 20
1412.79556372323
 30
-0.0000000000000426
 11
1751.912127259074
 21
1412.79556372323
 31
-0.0000000000000426
210
-0.0000000000000004
220
-1.0
230
-0.0000000000000002
  0
LINE
  5
483
330
1F
100
AcDbEntity
  8
0
100
AcDbLine
 10
1731.912127259074
 20
1412.79556372323
 30
-0.0000000000000426
 11
1731.912127259074
 21
1400.79556372323
 31
-0.0000000000000426
210
-0.0000000000000004
220
-1.0
230
-0.0000000000000002
  0
LINE
  5
484
330
1F
100
AcDbEntity
  8
0
100
AcDbLine
 10
1751.912127259074
 20
1412.79556372323
 30
-0.0000000000000426
 11
1731.912127259074
 21
1412.79556372323
 31
-0.0000000000000426
210
-0.0000000000000004
220
-1.0
230
-0.0000000000000002
  0
LINE
  5
485
102
{ACAD_REACTORS
330
6F3
102
}
330
1F
100
AcDbEntity
  8
0
100
AcDbLine
 10
1731.912127259074
 20
1400.79556372323
 30
-0.0000000000000426
 11
1751.912127259074
 21
1400.79556372323
 31
-0.0000000000000426
210
-0.0000000000000004
220
-1.0
230
-0.0000000000000002
  0
LINE
  5
486
330
1F
100
AcDbEntity
  8
0
100
AcDbLine
 10
1751.912127259074
 20
1400.79556372323
 30
-0.0000000000000426
 11
2111.912127259074
 21
1400.79556372323
 31
-0.0000000000000426
210
-0.0000000000000004
220
-1.0
230
-0.0000000000000002
  0
LINE
  5
487
330
1F
100
AcDbEntity
  8
0
100
AcDbLine
 10
2131.912127259074
 20
1400.79556372323
 30
-0.0000000000000426
 11
2131.912127259074
 21
1412.79556372323
 31
-0.0000000000000426
210
-0.0000000000000004
220
-1.0
230
-0.0000000000000002
  0
LINE
  5
488
330
1F
100
AcDbEntity
  8
0
100
AcDbLine
 10
2111.912127259074
 20
1400.79556372323
 30
-0.0000000000000426
 11
2131.912127259074
 21
1400.79556372323
 31
-0.0000000000000426
210
-0.0000000000000004
220
-1.0
230
-0.0000000000000002
  0
LINE
  5
489
330
1F
100
AcDbEntity
  8
0
100
AcDbLine
 10
2131.912127259074
 20
1412.79556372323
 30
-0.0000000000000426
 11
2111.912127259074
 21
1412.79556372323
 31
-0.0000000000000426
210
-0.0000000000000004
220
-1.0
230
-0.0000000000000002
  0
LINE
  5
48A
330
1F
100
AcDbEntity
  8
0
100
AcDbLine
 10
2111.912127259074
 20
1412.79556372323
 30
-0.0000000000000426
 11
1751.912127259074
 21
1412.79556372323
 31
-0.0000000000000426
210
-0.0000000000000004
220
-1.0
230
-0.0000000000000002
  0
LINE
  5
48B
330
1F
100
AcDbEntity
  8
0
100
AcDbLine
 10
1751.912127259074
 20
1412.79556372323
 30
-0.0000000000000426
 11
1751.912127259074
 21
1862.79556372323
 31
0.0000000000000426
210
-0.0000000000000004
220
-1.0
230
-0.0000000000000002
  0
LINE
  5
48C
330
1F
100
AcDbEntity
  8
0
100
AcDbLine
 10
1751.912127259074
 20
1862.79556372323
 30
0.0000000000000426
 11
2111.912127259074
 21
1862.79556372323
 31
0.0000000000000426
210
-0.0000000000000004
220
-1.0
230
-0.0000000000000002
  0
LINE
  5
48D
330
1F
100
AcDbEntity
  8
0
100
AcDbLine
 10
2111.912127259074
 20
1862.79556372323
 30
0.0000000000000426
 11
2111.912127259074
 21
1412.79556372323
 31
-0.0000000000000426
210
-0.0000000000000004
220
-1.0
230
-0.0000000000000002
  0
LINE
  5
48E
330
1F
100
AcDbEntity
  8
0
100
AcDbLine
 10
2111.912127259074
 20
1862.79556372323
 30
0.0000000000000426
 11
1751.912127259074
 21
1862.79556372323
 31
0.0000000000000426
210
-0.0000000000000004
220
-1.0
230
-0.0000000000000002
  0
LINE
  5
48F
330
1F
100
AcDbEntity
  8
0
100
AcDbLine
 10
1731.912127259074
 20
1874.79556372323
 30
0.0000000000000426
 11
1731.912127259074
 21
1862.79556372323
 31
0.0000000000000426
210
-0.0000000000000004
220
-1.0
230
-0.0000000000000002
  0
LINE
  5
490
330
1F
100
AcDbEntity
  8
0
100
AcDbLine
 10
1731.912127259074
 20
1862.79556372323
 30
0.0000000000000426
 11
1751.912127259074
 21
1862.79556372323
 31
0.0000000000000426
210
-0.0000000000000004
220
-1.0
230
-0.0000000000000002
  0
LINE
  5
491
330
1F
100
AcDbEntity
  8
0
100
AcDbLine
 10
1751.912127259074
 20
1874.79556372323
 30
0.0000000000000426
 11
2111.912127259074
 21
1874.79556372323
 31
0.0000000000000426
210
-0.0000000000000004
220
-1.0
230
-0.0000000000000002
  0
LINE
  5
492
102
{ACAD_REACTORS
330
6F0
102
}
330
1F
100
AcDbEntity
  8
0
100
AcDbLine
 10
1751.912127259074
 20
1874.79556372323
 30
0.0000000000000426
 11
1731.912127259074
 21
1874.79556372323
 31
0.0000000000000426
210
-0.0000000000000004
220
-1.0
230
-0.0000000000000002
  0
LINE
  5
493
330
1F
100
AcDbEntity
  8
0
100
AcDbLine
 10
2131.912127259074
 20
1874.79556372323
 30
0.0000000000000426
 11
2111.912127259074
 21
1874.79556372323
 31
0.0000000000000426
210
-0.0000000000000004
220
-1.0
230
-0.0000000000000002
  0
LINE
  5
494
102
{ACAD_REACTORS
330
6F0
102
}
330
1F
100
AcDbEntity
  8
0
100
AcDbLine
 10
2131.912127259074
 20
1862.79556372323
 30
0.0000000000000426
 11
2131.912127259074
 21
1874.79556372323
 31
0.0000000000000426
210
-0.0000000000000004
220
-1.0
230
-0.0000000000000002
  0
LINE
  5
495
330
1F
100
AcDbEntity
  8
0
100
AcDbLine
 10
2111.912127259074
 20
1862.79556372323
 30
0.0000000000000426
 11
2131.912127259074
 21
1862.79556372323
 31
0.0000000000000426
210
-0.0000000000000004
220
-1.0
230
-0.0000000000000002
  0
LINE
  5
496
330
1F
100
AcDbEntity
  8
0
100
AcDbLine
 10
2927.381577646463
 20
1400.79556372323
 30
-0.0000000000000426
 11
2927.381577646463
 21
1412.79556372323
 31
-0.0000000000000426
210
-0.0000000000000001
220
-1.0
230
-0.0000000000000002
  0
LINE
  5
497
330
1F
100
AcDbEntity
  8
0
100
AcDbLine
 10
2927.381577646463
 20
1412.79556372323
 30
-0.0000000000000426
 11
2947.381577646463
 21
1412.79556372323
 31
-0.0000000000000426
210
-0.0000000000000001
220
-1.0
230
-0.0000000000000002
  0
LINE
  5
498
330
1F
100
AcDbEntity
  8
0
100
AcDbLine
 10
2947.381577646463
 20
1412.79556372323
 30
-0.0000000000000426
 11
3307.381577646463
 21
1412.79556372323
 31
-0.0000000000000426
210
-0.0000000000000001
220
-1.0
230
-0.0000000000000002
  0
LINE
  5
499
330
1F
100
AcDbEntity
  8
0
100
AcDbLine
 10
3307.381577646463
 20
1412.79556372323
 30
-0.0000000000000426
 11
3327.381577646463
 21
1412.79556372323
 31
-0.0000000000000426
210
-0.0000000000000001
220
-1.0
230
-0.0000000000000002
  0
LINE
  5
49A
330
1F
100
AcDbEntity
  8
0
100
AcDbLine
 10
3327.381577646463
 20
1400.79556372323
 30
-0.0000000000000426
 11
3307.381577646463
 21
1400.79556372323
 31
-0.0000000000000426
210
-0.0000000000000001
220
-1.0
230
-0.0000000000000002
  0
LINE
  5
49B
330
1F
100
AcDbEntity
  8
0
100
AcDbLine
 10
3307.381577646463
 20
1400.79556372323
 30
-0.0000000000000426
 11
2947.381577646463
 21
1400.79556372323
 31
-0.0000000000000426
210
-0.0000000000000001
220
-1.0
230
-0.0000000000000002
  0
LINE
  5
49C
330
1F
100
AcDbEntity
  8
0
100
AcDbLine
 10
2947.381577646463
 20
1400.79556372323
 30
-0.0000000000000426
 11
2927.381577646463
 21
1400.79556372323
 31
-0.0000000000000426
210
-0.0000000000000001
220
-1.0
230
-0.0000000000000002
  0
LINE
  5
49D
330
1F
100
AcDbEntity
  8
0
100
AcDbLine
 10
3327.381577646463
 20
1412.79556372323
 30
-0.0000000000000426
 11
3327.381577646463
 21
1400.79556372323
 31
-0.0000000000000426
210
-0.0000000000000001
220
-1.0
230
-0.0000000000000002
  0
LINE
  5
49E
330
1F
100
AcDbEntity
  8
0
100
AcDbLine
 10
2927.381577646463
 20
1862.79556372323
 30
0.0000000000000426
 11
2927.381577646463
 21
1874.79556372323
 31
0.0000000000000426
210
-0.0000000000000001
220
-1.0
230
-0.0000000000000002
  0
LINE
  5
49F
330
1F
100
AcDbEntity
  8
0
100
AcDbLine
 10
2947.381577646463
 20
1862.79556372323
 30
0.0000000000000426
 11
3307.381577646463
 21
1862.79556372323
 31
0.0000000000000426
210
-0.0000000000000001
220
-1.0
230
-0.0000000000000002
  0
LINE
  5
4A0
330
1F
100
AcDbEntity
  8
0
100
AcDbLine
 10
2947.381577646463
 20
1862.79556372323
 30
0.0000000000000426
 11
2927.381577646463
 21
1862.79556372323
 31
0.0000000000000426
210
-0.0000000000000001
220
-1.0
230
-0.0000000000000002
  0
LINE
  5
4A1
330
1F
100
AcDbEntity
  8
0
100
AcDbLine
 10
3327.381577646463
 20
1862.79556372323
 30
0.0000000000000426
 11
3307.381577646463
 21
1862.79556372323
 31
0.0000000000000426
210
-0.0000000000000001
220
-1.0
230
-0.0000000000000002
  0
LINE
  5
4A2
330
1F
100
AcDbEntity
  8
0
100
AcDbLine
 10
3327.381577646463
 20
1874.79556372323
 30
0.0000000000000426
 11
3327.381577646463
 21
1862.79556372323
 31
0.0000000000000426
210
-0.0000000000000001
220
-1.0
230
-0.0000000000000002
  0
LINE
  5
4A3
330
1F
100
AcDbEntity
  8
0
100
AcDbLine
 10
2927.381577646463
 20
1874.79556372323
 30
0.0000000000000426
 11
2947.381577646463
 21
1874.79556372323
 31
0.0000000000000426
210
-0.0000000000000001
220
-1.0
230
-0.0000000000000002
  0
LINE
  5
4A4
330
1F
100
AcDbEntity
  8
0
100
AcDbLine
 10
3307.381577646463
 20
1874.79556372323
 30
0.0000000000000426
 11
2947.381577646463
 21
1874.79556372323
 31
0.0000000000000426
210
-0.0000000000000001
220
-1.0
230
-0.0000000000000002
  0
LINE
  5
4A5
330
1F
100
AcDbEntity
  8
0
100
AcDbLine
 10
3307.381577646463
 20
1874.79556372323
 30
0.0000000000000426
 11
3327.381577646463
 21
1874.79556372323
 31
0.0000000000000426
210
-0.0000000000000001
220
-1.0
230
-0.0000000000000002
  0
LINE
  5
4A6
330
1F
100
AcDbEntity
  8
0
100
AcDbLine
 10
2947.381577646463
 20
1862.79556372323
 30
0.0000000000000426
 11
3307.381577646463
 21
1862.79556372323
 31
0.0000000000000426
210
-0.0000000000000001
220
-1.0
230
-0.0000000000000002
  0
LINE
  5
4A7
330
1F
100
AcDbEntity
  8
0
100
AcDbLine
 10
2947.381577646463
 20
1412.79556372323
 30
-0.0000000000000426
 11
2947.381577646463
 21
1862.79556372323
 31
0.0000000000000426
210
-0.0000000000000001
220
-1.0
230
-0.0000000000000002
  0
LINE
  5
4A8
330
1F
100
AcDbEntity
  8
0
100
AcDbLine
 10
3307.381577646463
 20
1412.79556372323
 30
-0.0000000000000426
 11
2947.381577646463
 21
1412.79556372323
 31
-0.0000000000000426
210
-0.0000000000000001
220
-1.0
230
-0.0000000000000002
  0
LINE
  5
4A9
330
1F
100
AcDbEntity
  8
0
100
AcDbLine
 10
3307.381577646463
 20
1862.79556372323
 30
0.0000000000000426
 11
3307.381577646463
 21
1412.79556372323
 31
-0.0000000000000426
210
-0.0000000000000001
220
-1.0
230
-0.0000000000000002
  0
CIRCLE
  5
4AA
330
1F
100
AcDbEntity
  8
0
100
AcDbCircle
 10
-2991.881577646463
 20
1532.79556372323
 30
0.0000000000002958
 40
3.0
210
0.0
220
0.0000000000000002
230
-1.0
  0
CIRCLE
  5
4AB
330
1F
100
AcDbEntity
  8
0
100
AcDbCircle
 10
-2991.881577646463
 20
1597.79556372323
 30
0.0000000000002935
 40
3.0
210
0.0
220
0.0000000000000002
230
-1.0
  0
CIRCLE
  5
4AC
330
1F
100
AcDbEntity
  8
0
100
AcDbCircle
 10
-2991.881577646463
 20
1677.79556372323
 30
0.000000000000294
 40
3.0
210
0.0
220
0.0000000000000002
230
-1.0
  0
CIRCLE
  5
4AD
330
1F
100
AcDbEntity
  8
0
100
AcDbCircle
 10
-2991.881577646463
 20
1742.79556372323
 30
0.0000000000002917
 40
3.0
210
0.0
220
0.0000000000000002
230
-1.0
  0
CIRCLE
  5
4AE
102
{ACAD_REACTORS
330
6FE
102
}
330
1F
100
AcDbEntity
  8
0
100
AcDbCircle
 10
-3262.881577646463
 20
1532.79556372323
 30
0.0000000000002958
 40
3.0
210
0.0
220
0.0000000000000002
230
-1.0
  0
CIRCLE
  5
4AF
330
1F
100
AcDbEntity
  8
0
100
AcDbCircle
 10
-3262.881577646463
 20
1597.79556372323
 30
0.0000000000002935
 40
3.0
210
0.0
220
0.0000000000000002
230
-1.0
  0
CIRCLE
  5
4B0
330
1F
100
AcDbEntity
  8
0
100
AcDbCircle
 10
-3262.881577646463
 20
1677.79556372323
 30
0.000000000000294
 40
3.0
210
0.0
220
0.0000000000000002
230
-1.0
  0
CIRCLE
  5
4B1
330
1F
100
AcDbEntity
  8
0
100
AcDbCircle
 10
-3262.881577646463
 20
1742.79556372323
 30
0.0000000000002917
 40
3.0
210
0.0
220
0.0000000000000002
230
-1.0
  0
LINE
  5
4B2
330
1F
100
AcDbEntity
  8
0
100
AcDbLine
 10
1439.246720081194
 20
1412.79556372323
 30
0.0
 11
1295.246720081194
 21
1412.79556372323
 31
0.0
210
-0.0000000000000001
220
-1.0
230
-0.0000000000000002
  0
LINE
  5
4B3
330
1F
100
AcDbEntity
  8
0
100
AcDbLine
 10
1295.246720081194
 20
1412.79556372323
 30
0.0
 11
1275.246720081194
 21
1412.79556372323
 31
0.0
210
-0.0000000000000001
220
-1.0
230
-0.0000000000000002
  0
LINE
  5
4B4
330
1F
100
AcDbEntity
  8
0
100
AcDbLine
 10
1459.246720081194
 20
1400.79556372323
 30
0.0
 11
1459.246720081194
 21
1412.79556372323
 31
0.0
210
-0.0000000000000001
220
-1.0
230
-0.0000000000000002
  0
LINE
  5
4B5
330
1F
100
AcDbEntity
  8
0
100
AcDbLine
 10
1459.246720081194
 20
1412.79556372323
 30
0.0
 11
1439.246720081194
 21
1412.79556372323
 31
0.0
210
-0.0000000000000001
220
-1.0
230
-0.0000000000000002
  0
LINE
  5
4B6
330
1F
100
AcDbEntity
  8
0
100
AcDbLine
 10
1275.246720081194
 20
1412.79556372323
 30
0.0
 11
1275.246720081194
 21
1400.79556372323
 31
0.0
210
-0.0000000000000001
220
-1.0
230
-0.0000000000000002
  0
LINE
  5
4B7
330
1F
100
AcDbEntity
  8
0
100
AcDbLine
 10
1275.246720081194
 20
1400.79556372323
 30
0.0
 11
1295.246720081194
 21
1400.79556372323
 31
0.0
210
-0.0000000000000001
220
-1.0
230
-0.0000000000000002
  0
LINE
  5
4B8
330
1F
100
AcDbEntity
  8
0
100
AcDbLine
 10
1295.246720081194
 20
1400.79556372323
 30
0.0
 11
1439.246720081194
 21
1400.79556372323
 31
0.0
210
-0.0000000000000001
220
-1.0
230
-0.0000000000000002
  0
LINE
  5
4B9
330
1F
100
AcDbEntity
  8
0
100
AcDbLine
 10
1439.246720081194
 20
1400.79556372323
 30
0.0
 11
1459.246720081194
 21
1400.79556372323
 31
0.0
210
-0.0000000000000001
220
-1.0
230
-0.0000000000000002
  0
LINE
  5
4BA
330
1F
100
AcDbEntity
  8
0
100
AcDbLine
 10
1459.246720081194
 20
1412.79556372323
 30
0.0
 11
1459.246720081194
 21
1862.79556372323
 31
0.0
210
-0.0000000000000001
220
-1.0
230
-0.0000000000000002
  0
LINE
  5
4BB
330
1F
100
AcDbEntity
  8
0
100
AcDbLine
 10
1447.246720081194
 20
1862.79556372323
 30
0.0
 11
1447.246720081194
 21
1412.79556372323
 31
0.0
210
-0.0000000000000001
220
-1.0
230
-0.0000000000000002
  0
LINE
  5
4BC
330
1F
100
AcDbEntity
  8
0
100
AcDbLine
 10
1275.246720081194
 20
1874.79556372323
 30
0.0
 11
1275.246720081194
 21
1862.79556372323
 31
0.0
210
-0.0000000000000001
220
-1.0
230
-0.0000000000000002
  0
LINE
  5
4BD
330
1F
100
AcDbEntity
  8
0
100
AcDbLine
 10
1275.246720081194
 20
1862.79556372323
 30
0.0
 11
1295.246720081194
 21
1862.79556372323
 31
0.0
210
-0.0000000000000001
220
-1.0
230
-0.0000000000000002
  0
LINE
  5
4BE
330
1F
100
AcDbEntity
  8
0
100
AcDbLine
 10
1439.246720081194
 20
1862.79556372323
 30
0.0
 11
1295.246720081194
 21
1862.79556372323
 31
0.0
210
-0.0000000000000001
220
-1.0
230
-0.0000000000000002
  0
LINE
  5
4BF
330
1F
100
AcDbEntity
  8
0
100
AcDbLine
 10
1459.246720081194
 20
1862.79556372323
 30
0.0
 11
1459.246720081194
 21
1874.79556372323
 31
0.0
210
-0.0000000000000001
220
-1.0
230
-0.0000000000000002
  0
LINE
  5
4C0
330
1F
100
AcDbEntity
  8
0
100
AcDbLine
 10
1439.246720081194
 20
1862.79556372323
 30
0.0
 11
1459.246720081194
 21
1862.79556372323
 31
0.0
210
-0.0000000000000001
220
-1.0
230
-0.0000000000000002
  0
LINE
  5
4C1
102
{ACAD_REACTORS
330
6F6
102
}
330
1F
100
AcDbEntity
  8
0
100
AcDbLine
 10
1459.246720081194
 20
1874.79556372323
 30
0.0
 11
1439.246720081194
 21
1874.79556372323
 31
0.0
210
-0.0000000000000001
220
-1.0
230
-0.0000000000000002
  0
LINE
  5
4C2
330
1F
100
AcDbEntity
  8
0
100
AcDbLine
 10
1295.246720081194
 20
1874.79556372323
 30
0.0
 11
1439.246720081194
 21
1874.79556372323
 31
0.0
210
-0.0000000000000001
220
-1.0
230
-0.0000000000000002
  0
LINE
  5
4C3
102
{ACAD_REACTORS
330
6F6
102
}
330
1F
100
AcDbEntity
  8
0
100
AcDbLine
 10
1295.246720081194
 20
1874.79556372323
 30
0.0
 11
1275.246720081194
 21
1874.79556372323
 31
0.0
210
-0.0000000000000001
220
-1.0
230
-0.0000000000000002
  0
LINE
  5
4C4
330
1F
100
AcDbEntity
  8
0
100
AcDbLine
 10
1275.246720081194
 20
1412.79556372323
 30
0.0
 11
1275.246720081194
 21
1862.79556372323
 31
0.0
210
-0.0000000000000001
220
-1.0
230
-0.0000000000000002
  0
LINE
  5
4C5
330
1F
100
AcDbEntity
  8
0
100
AcDbLine
 10
1287.246720081194
 20
1862.79556372323
 30
0.0
 11
1287.246720081194
 21
1412.79556372323
 31
0.0
210
-0.0000000000000001
220
-1.0
230
-0.0000000000000002
  0
LINE
  5
4C6
330
1F
100
AcDbEntity
  8
0
100
AcDbLine
 10
1442.246720081194
 20
1852.79556372323
 30
0.0
 11
1442.246720081194
 21
1422.79556372323
 31
0.0
210
-0.0000000000000001
220
-1.0
230
-0.0000000000000002
  0
HATCH
  5
4C7
330
1F
100
AcDbEntity
  8
0
370
     5
100
AcDbHatch
 10
0.0
 20
0.0
 30
972.6397571985543
210
0.0
220
0.0
230
1.0
  2
HEX
 70
     0
 71
     0
 91
        1
 92
        1
 93
        4
 72
     1
 10
1297.246720081194
 20
1852.79556372323
 11
1437.246720081194
 21
1852.79556372323
 72
     1
 10
1437.246720081194
 20
1852.79556372323
 11
1437.246720081194
 21
1422.79556372323
 72
     1
 10
1437.246720081194
 20
1422.79556372323
 11
1297.246720081194
 21
1422.79556372323
 72
     1
 10
1297.246720081194
 20
1422.79556372323
 11
1297.246720081194
 21
1852.79556372323
 97
        0
 75
     0
 76
     1
 52
0.0
 41
0.5
 77
     0
 78
     3
 53
180.0
 43
-529.9045626420021
 44
725.1654752647542
 45
0.0
 46
2.749629999999999
 79
     2
 49
1.587499999999999
 49
-3.174999999999999
 53
60.0
 43
-529.9045626420021
 44
725.1654752647542
 45
2.381249431007805
 46
-1.374814999999999
 79
     2
 49
1.587499999999999
 49
-3.174999999999998
 53
120.0
 43
-531.4920626420017
 44
725.1654752647542
 45
2.381249431007805
 46
1.374815
 79
     2
 49
1.587499999999998
 49
-3.174999999999996
 98
        1
 10
-529.9045626420021
 20
725.1654752647542
1001
ACAD
1010
0.0
1020
0.0
1030
0.0
  0
ARC
  5
4C8
330
1F
100
AcDbEntity
  8
0
100
AcDbCircle
 10
-1437.246720081194
 20
1422.79556372323
 30
0.0000000000002614
 40
5.0
210
0.0
220
0.0000000000000002
230
-1.0
100
AcDbArc
 50
180.0
 51
270.0
  0
LINE
  5
4C9
330
1F
100
AcDbEntity
  8
0
100
AcDbLine
 10
1437.246720081194
 20
1417.79556372323
 30
0.0
 11
1297.246720081194
 21
1417.79556372323
 31
0.0
210
-0.0000000000000001
220
-1.0
230
-0.0000000000000002
  0
ARC
  5
4CA
330
1F
100
AcDbEntity
  8
0
100
AcDbCircle
 10
-1297.246720081194
 20
1422.79556372323
 30
0.0000000000002614
 40
5.0
210
0.0
220
0.0000000000000002
230
-1.0
100
AcDbArc
 50
270.0
 51
0.0
  0
LINE
  5
4CB
330
1F
100
AcDbEntity
  8
0
100
AcDbLine
 10
1292.246720081194
 20
1422.79556372323
 30
0.0
 11
1292.246720081194
 21
1852.79556372323
 31
0.0
210
-0.0000000000000001
220
-1.0
230
-0.0000000000000002
  0
ARC
  5
4CC
330
1F
100
AcDbEntity
  8
0
100
AcDbCircle
 10
-1297.246720081194
 20
1852.79556372323
 30
0.0000000000003404
 40
5.0
210
0.0
220
0.0000000000000002
230
-1.0
100
AcDbArc
 50
0.0
 51
90.0
  0
LINE
  5
4CD
330
1F
100
AcDbEntity
  8
0
100
AcDbLine
 10
1297.246720081194
 20
1857.79556372323
 30
0.0
 11
1437.246720081194
 21
1857.79556372323
 31
0.0
210
-0.0000000000000001
220
-1.0
230
-0.0000000000000002
  0
ARC
  5
4CE
330
1F
100
AcDbEntity
  8
0
100
AcDbCircle
 10
-1437.246720081194
 20
1852.79556372323
 30
0.0000000000003404
 40
5.0
210
0.0
220
0.0000000000000002
230
-1.0
100
AcDbArc
 50
90.0
 51
180.0
  0
ARC
  5
4CF
330
1F
100
AcDbEntity
  8
0
100
AcDbCircle
 10
1751.912127259075
 20
990.3898030942588
 30
0.0
 40
20.0
100
AcDbArc
 50
180.0
 51
270.0
  0
LINE
  5
4D0
102
{ACAD_REACTORS
330
705
102
}
330
1F
100
AcDbEntity
  8
0
100
AcDbLine
 10
1751.912127259075
 20
970.3898030942587
 30
0.0
 11
2111.912127259076
 21
970.3898030942587
 31
0.0
  0
ARC
  5
4D1
330
1F
100
AcDbEntity
  8
0
100
AcDbCircle
 10
2111.912127259076
 20
990.3898030942588
 30
0.0
 40
20.0
100
AcDbArc
 50
270.0
 51
0.0
  0
LINE
  5
4D2
330
1F
100
AcDbEntity
  8
0
100
AcDbLine
 10
2131.912127259075
 20
990.3898030942588
 30
0.0
 11
2131.912127259074
 21
1134.389803094258
 31
0.0
  0
ARC
  5
4D3
102
{ACAD_REACTORS
330
702
102
}
330
1F
100
AcDbEntity
  8
0
100
AcDbCircle
 10
2111.912127259074
 20
1134.389803094258
 30
0.0
 40
20.0
100
AcDbArc
 50
0.0
 51
90.0
  0
LINE
  5
4D4
330
1F
100
AcDbEntity
  8
0
100
AcDbLine
 10
2111.912127259074
 20
1154.389803094258
 30
0.0
 11
1751.912127259074
 21
1154.389803094258
 31
0.0
  0
LINE
  5
4D5
330
1F
100
AcDbEntity
  8
0
100
AcDbLine
 10
1731.912127259074
 20
1134.389803094258
 30
0.0
 11
1731.912127259075
 21
990.3898030942588
 31
0.0
  0
ARC
  5
4D6
102
{ACAD_REACTORS
330
702
330
705
102
}
330
1F
100
AcDbEntity
  8
0
100
AcDbCircle
 10
1751.912127259074
 20
1134.389803094258
 30
0.0
 40
20.0
100
AcDbArc
 50
90.0
 51
180.0
  0
LINE
  5
4D7
330
1F
100
AcDbEntity
  8
0
100
AcDbLine
 10
2417.709619292836
 20
841.147556527642
 30
0.0
 11
2674.008064787085
 21
929.0824049786429
 31
0.0
210
0.0
220
0.8962024032375964
230
0.4436454129495272
  0
ELLIPSE
  5
4D8
330
1F
100
AcDbEntity
  8
0
100
AcDbEllipse
 10
2662.996411751138
 20
935.3993844058447
 30
0.0
 11
18.0
 21
0.0000000000000004
 31
0.0000000000000004
210
0.0
220
0.0000000000000002
230
1.0
 40
0.4436454129495277
 41
5.370670678029942
 42
6.283185307179594
  0
ELLIPSE
  5
4D9
330
1F
100
AcDbEntity
  8
0
100
AcDbEllipse
 10
2327.414064398082
 20
892.9467878306901
 30
0.0
 11
-18.0
 21
-0.0000000000000004
 31
-0.0000000000000004
210
0.0
220
0.0000000000000002
230
1.0
 40
0.4436454129495277
 41
-0.000000000000006
 42
0.6582816976452495
  0
ELLIPSE
  5
4DA
330
1F
100
AcDbEntity
  8
0
100
AcDbEllipse
 10
2327.414064398082
 20
902.6257737856546
 30
-0.0000000000005457
 11
-18.0
 21
-0.0000000000000004
 31
-0.0000000000000004
210
0.0
220
0.0000000000000002
230
1.0
 40
0.4436454129495277
 41
5.370670678029949
 42
6.941467004824835
  0
LINE
  5
4DB
330
1F
100
AcDbEntity
  8
0
100
AcDbLine
 10
2316.402411362137
 20
908.9427532128562
 30
0.0
 11
2572.700856856384
 21
996.8776016638591
 31
0.0
210
0.0
220
0.8962024032375964
230
0.4436454129495272
  0
ELLIPSE
  5
4DC
330
1F
100
AcDbEntity
  8
0
100
AcDbEllipse
 10
2583.712509892331
 20
990.5606222366573
 30
0.0
 11
18.0
 21
0.0000000000000004
 31
0.0000000000000004
210
0.0
220
0.0000000000000002
230
1.0
 40
0.4436454129495277
 41
0.6582816976452542
 42
2.229078024440156
  0
LINE
  5
4DD
330
1F
100
AcDbEntity
  8
0
100
AcDbLine
 10
2597.951312419788
 20
995.4458915950459
 30
0.0
 11
2677.235214278596
 21
949.9636397191995
 31
0.0
210
0.0
220
0.8962024032375964
230
0.4436454129495272
  0
ELLIPSE
  5
4DE
330
1F
100
AcDbEntity
  8
0
100
AcDbEllipse
 10
2662.996411751138
 20
945.0783703608109
 30
-0.0000000000005457
 11
18.0
 21
0.0000000000000004
 31
0.0000000000000004
210
0.0
220
0.0000000000000002
230
1.0
 40
0.4436454129495277
 41
5.370670678029942
 42
6.941467004824844
  0
LINE
  5
4DF
330
1F
100
AcDbEntity
  8
0
100
AcDbLine
 10
2674.008064787085
 20
938.7613909336092
 30
0.0
 11
2417.709619292836
 21
850.8265424826063
 31
0.0
210
0.0
220
0.8962024032375964
230
0.4436454129495272
  0
LINE
  5
4E0
330
1F
100
AcDbEntity
  8
0
100
AcDbLine
 10
2313.175261870624
 20
888.0615184722998
 30
0.0
 11
2392.459163729432
 21
842.5792665964532
 31
0.0
210
0.0
220
0.8962024032375964
230
0.4436454129495272
  0
LINE
  5
4E1
330
1F
100
AcDbEntity
  8
0
100
AcDbLine
 10
2392.459163729432
 20
852.2582525514195
 30
0.0
 11
2313.175261870624
 21
897.7405044272661
 31
0.0
210
0.0
220
0.8962024032375964
230
0.4436454129495272
  0
ELLIPSE
  5
4E2
330
1F
100
AcDbEntity
  8
0
100
AcDbEllipse
 10
2406.697966256891
 20
857.1435219098081
 30
0.0
 11
-18.0
 21
-0.0000000000000004
 31
-0.0000000000000004
210
0.0
220
0.0000000000000002
230
1.0
 40
0.4436454129495277
 41
0.6582816976452611
 42
2.229078024440165
  0
ELLIPSE
  5
4E3
330
1F
100
AcDbEntity
  8
0
100
AcDbEllipse
 10
2406.697966256891
 20
847.4645359548418
 30
0.0
 11
18.0
 21
0.0000000000000004
 31
0.0000000000000004
210
0.0
220
0.0000000000000002
230
1.0
 40
0.4436454129495277
 41
3.799874351235042
 42
5.370670678029947
  0
LINE
  5
4E4
330
1F
100
AcDbEntity
  8
0
100
AcDbLine
 10
2538.216023587701
 20
935.0756200092824
 30
0.0
 11
2459.902609686681
 21
908.2066385381427
 31
0.0
210
0.0
220
0.8962024032375964
230
0.4436454129495272
  0
ELLIPSE
  5
4E5
330
1F
100
AcDbEntity
  8
0
100
AcDbEllipse
 10
2535.463110328715
 20
936.6548648660833
 30
-0.0000000000005457
 11
4.499999999999999
 21
0.0000000000000001
 31
0.0000000000000001
210
0.0
220
0.0000000000000002
230
1.0
 40
0.4436454129495277
 41
5.370670678029967
 42
6.941467004824837
  0
LINE
  5
4E6
330
1F
100
AcDbEntity
  8
0
100
AcDbLine
 10
2453.589995795831
 20
908.564566055346
 30
0.0
 11
2431.566689723938
 21
921.1985249097475
 31
0.0
210
0.0
220
0.8962024032375964
230
0.4436454129495272
  0
ELLIPSE
  5
4E7
330
1F
100
AcDbEntity
  8
0
100
AcDbEllipse
 10
2457.149696427695
 20
909.7858833949436
 30
-0.0000000000005457
 11
-4.499999999999999
 21
-0.0000000000000001
 31
-0.0000000000000001
210
0.0
220
0.0000000000000002
230
1.0
 40
0.4436454129495277
 41
0.6582816976452791
 42
2.229078024440147
  0
LINE
  5
4E8
330
1F
100
AcDbEntity
  8
0
100
AcDbLine
 10
2531.21788996585
 20
932.674591714746
 30
0.0
 11
2516.999504888687
 21
940.8311551051161
 31
0.0
210
0.0
220
0.8962024032375964
230
0.4436454129495272
  0
LINE
  5
4E9
330
1F
100
AcDbEntity
  8
0
100
AcDbLine
 10
2516.999504888687
 20
950.5101410600806
 30
0.0
 11
2539.022810960579
 21
937.8761822056791
 31
0.0
210
0.0
220
0.8962024032375964
230
0.4436454129495272
  0
ELLIPSE
  5
4EA
330
1F
100
AcDbEntity
  8
0
100
AcDbEllipse
 10
2513.439804256824
 20
939.6098377655185
 30
-0.0000000000005457
 11
-4.499999999999999
 21
-0.0000000000000001
 31
-0.0000000000000001
210
0.0
220
0.0000000000000002
230
1.0
 40
0.4436454129495277
 41
3.799874351235044
 42
5.370670678029935
  0
ELLIPSE
  5
4EB
330
1F
100
AcDbEntity
  8
0
100
AcDbEllipse
 10
2513.439804256824
 20
949.288823720483
 30
-0.0000000000005457
 11
4.499999999999999
 21
0.0000000000000001
 31
0.0000000000000001
210
0.0
220
0.0000000000000002
230
1.0
 40
0.4436454129495277
 41
0.6582816976452519
 42
2.229078024440171
  0
LINE
  5
4EC
330
1F
100
AcDbEntity
  8
0
100
AcDbLine
 10
2510.686890997837
 20
941.1890826223194
 30
0.0
 11
2439.371610718669
 21
916.7211294457162
 31
0.0
210
0.0
220
0.8962024032375964
230
0.4436454129495272
  0
LINE
  5
4ED
330
1F
100
AcDbEntity
  8
0
100
AcDbLine
 10
2432.373477096818
 20
923.9990871061459
 30
0.0
 11
2510.686890997837
 21
950.8680685772839
 31
0.0
210
0.0
220
0.8962024032375964
230
0.4436454129495272
  0
ELLIPSE
  5
4EE
330
1F
100
AcDbEntity
  8
0
100
AcDbEllipse
 10
2435.126390355804
 20
922.4198422493451
 30
0.0
 11
-4.499999999999999
 21
-0.0000000000000001
 31
-0.0000000000000001
210
0.0
220
0.0000000000000002
230
1.0
 40
0.4436454129495277
 41
5.370670678029935
 42
6.941467004824828
  0
LINE
  5
4EF
330
1F
100
AcDbEntity
  8
0
100
AcDbLine
 10
2411.102627471269
 20
481.9757708727362
 30
0.0
 11
2417.709619292836
 21
478.1855832164152
 31
0.0
210
0.0
220
0.8962024032375964
230
0.4436454129495272
  0
LINE
  5
4F0
330
1F
100
AcDbEntity
  8
0
100
AcDbLine
 10
2417.709619292836
 20
841.147556527642
 30
0.0
 11
2674.008064787085
 21
929.0824049786429
 31
0.0
210
0.0
220
0.8962024032375964
230
0.4436454129495272
  0
LINE
  5
4F1
330
1F
100
AcDbEntity
  8
0
100
AcDbLine
 10
2674.008064787085
 20
929.0824049786429
 30
0.0
 11
2674.008064787085
 21
566.1204316674163
 31
0.0
210
0.0
220
0.8962024032375964
230
0.4436454129495272
  0
LINE
  5
4F2
330
1F
100
AcDbEntity
  8
0
100
AcDbLine
 10
2674.008064787085
 20
566.1204316674163
 30
0.0
 11
2417.709619292836
 21
478.1855832164152
 31
0.0
210
0.0
220
0.8962024032375964
230
0.4436454129495272
  0
LINE
  5
4F3
330
1F
100
AcDbEntity
  8
0
100
AcDbLine
 10
2417.709619292836
 20
478.1855832164152
 30
0.0
 11
2417.709619292836
 21
841.147556527642
 31
0.0
210
0.0
220
0.8962024032375964
230
0.4436454129495272
  0
LINE
  5
4F4
330
1F
100
AcDbEntity
  8
0
100
AcDbLine
 10
2411.102627471269
 20
839.7216974110621
 30
0.0
 11
2411.102627471269
 21
481.9757708727362
 31
0.0
210
0.0
220
0.8962024032375964
230
0.4436454129495272
  0
LINE
  5
4F5
330
1F
100
AcDbEntity
  8
0
100
AcDbLine
 10
2677.235214278596
 20
577.3226804530064
 30
0.0000000000005457
 11
2674.008064787085
 21
579.1739771547678
 31
0.0
210
0.0
220
0.8962024032375964
230
0.4436454129495272
  0
LINE
  5
4F6
330
1F
100
AcDbEntity
  8
0
100
AcDbLine
 10
2417.709619292836
 20
478.1855832164152
 30
0.0
 11
2674.008064787085
 21
566.1204316674163
 31
0.0
210
0.0
220
0.8962024032375964
230
0.4436454129495272
  0
ELLIPSE
  5
4F7
330
1F
100
AcDbEntity
  8
0
100
AcDbEllipse
 10
2662.996411751138
 20
572.4374110946179
 30
0.0
 11
18.0
 21
0.0000000000000004
 31
0.0000000000000004
210
0.0
220
0.0000000000000002
230
1.0
 40
0.4436454129495277
 41
5.370670678029954
 42
6.941467004824865
  0
ELLIPSE
  5
4F8
330
1F
100
AcDbEntity
  8
0
100
AcDbEllipse
 10
2327.414064398082
 20
529.9848145194633
 30
0.0
 11
-18.0
 21
-0.0000000000000004
 31
-0.0000000000000004
210
0.0
220
0.0000000000000002
230
1.0
 40
0.4436454129495277
 41
5.370670678029937
 42
6.941467004824838
  0
LINE
  5
4F9
330
1F
100
AcDbEntity
  8
0
100
AcDbLine
 10
2313.175261870624
 20
525.099545161073
 30
0.0000000000005457
 11
2392.459163729432
 21
479.6172932852265
 31
0.0
210
0.0
220
0.8962024032375964
230
0.4436454129495272
  0
LINE
  5
4FA
330
1F
100
AcDbEntity
  8
0
100
AcDbLine
 10
2674.008064787085
 20
556.44144571245
 30
0.0
 11
2417.709619292836
 21
468.506597261449
 31
0.0
210
0.0
220
0.8962024032375964
230
0.4436454129495272
  0
ELLIPSE
  5
4FB
330
1F
100
AcDbEntity
  8
0
100
AcDbEllipse
 10
2662.996411751138
 20
562.7584251396516
 30
-0.0000000000005457
 11
18.0
 21
0.0000000000000004
 31
0.0000000000000004
210
0.0
220
0.0000000000000002
230
1.0
 40
0.4436454129495277
 41
5.370670678029954
 42
6.283185307179585
  0
ELLIPSE
  5
4FC
330
1F
100
AcDbEntity
  8
0
100
AcDbEllipse
 10
2327.414064398082
 20
520.3058285644971
 30
0.0
 11
-18.0
 21
-0.0000000000000004
 31
-0.0000000000000004
210
0.0
220
0.0000000000000002
230
1.0
 40
0.4436454129495277
 41
-0.000000000000006
 42
0.6582816976452405
  0
LINE
  5
4FD
330
1F
100
AcDbEntity
  8
0
100
AcDbLine
 10
2392.459163729432
 20
469.9383073302603
 30
0.0
 11
2313.175261870624
 21
515.4205592061085
 31
0.0
210
0.0
220
0.8962024032375964
230
0.4436454129495272
  0
ELLIPSE
  5
4FE
330
1F
100
AcDbEntity
  8
0
100
AcDbEllipse
 10
2406.697966256891
 20
474.8235766886506
 30
0.0
 11
18.0
 21
0.0000000000000004
 31
0.0000000000000004
210
0.0
220
0.0000000000000002
230
1.0
 40
0.4436454129495277
 41
3.799874351235053
 42
5.370670678029954
  0
ELLIPSE
  5
4FF
330
1F
100
AcDbEntity
  8
0
100
AcDbEllipse
 10
2406.697966256891
 20
484.5025626436169
 30
0.0
 11
-18.0
 21
-0.0000000000000004
 31
-0.0000000000000004
210
0.0
220
0.0000000000000002
230
1.0
 40
0.4436454129495277
 41
0.6582816976452495
 42
2.229078024440154
  0
LINE
  5
500
330
1F
100
AcDbEntity
  8
0
100
AcDbLine
 10
2409.773594465028
 20
733.275430159542
 30
0.0000000000005457
 11
2411.102627471269
 21
733.7314154300116
 31
0.0
210
0.0
220
0.8962024032375964
230
0.4436454129495272
  0
LINE
  5
501
330
1F
100
AcDbEntity
  8
0
100
AcDbLine
 10
2531.21788996585
 20
932.674591714746
 30
0.0
 11
2516.999504888687
 21
940.8311551051161
 31
0.0
210
0.0
220
0.8962024032375964
230
0.4436454129495272
  0
LINE
  5
502
330
1F
100
AcDbEntity
  8
0
100
AcDbLine
 10
2512.044261022512
 20
941.5078137714068
 30
0.0
 11
2512.044261022512
 21
926.0962055207262
 31
0.0
210
0.0
220
0.8962024032375964
230
0.4436454129495272
  0
LINE
  5
503
330
1F
100
AcDbEntity
  8
0
100
AcDbLine
 10
2323.009403183704
 20
532.511606290344
 30
0.0
 11
2316.402411362137
 21
536.3017939466632
 31
0.0
210
0.0
220
0.8962024032375964
230
0.4436454129495272
  0
LINE
  5
504
330
1F
100
AcDbEntity
  8
0
100
AcDbLine
 10
2316.402411362137
 20
536.3017939466632
 30
0.0
 11
2316.402411362137
 21
886.2102217705384
 31
0.0
210
0.0
220
0.8962024032375964
230
0.4436454129495272
  0
LINE
  5
505
330
1F
100
AcDbEntity
  8
0
100
AcDbLine
 10
2323.009403183704
 20
532.511606290344
 30
0.0
 11
2328.349824622345
 21
534.3438809612477
 31
0.0
210
0.0
220
0.8962024032375964
230
0.4436454129495272
  0
LINE
  5
506
330
1F
100
AcDbEntity
  8
0
100
AcDbLine
 10
2409.773594465028
 20
562.2800116218082
 30
0.0000000000005457
 11
2411.102627471269
 21
562.7359968922798
 31
0.0
210
0.0
220
0.8962024032375964
230
0.4436454129495272
  0
LINE
  5
507
330
1F
100
AcDbEntity
  8
0
100
AcDbLine
 10
2323.009403183704
 20
882.4200341142173
 30
0.0
 11
2323.009403183704
 21
532.511606290344
 31
0.0
210
0.0
220
0.8962024032375964
230
0.4436454129495272
  0
LINE
  5
508
330
1F
100
AcDbEntity
  8
0
100
AcDbLine
 10
2409.773594465028
 20
495.7917336039905
 30
0.0000000000005457
 11
2411.102627471269
 21
495.0293163600878
 31
0.0
210
0.0
220
0.8962024032375964
230
0.4436454129495272
  0
ELLIPSE
  5
509
330
1F
100
AcDbEntity
  8
0
100
AcDbEllipse
 10
2381.294817854944
 20
762.1694284432184
 30
0.0
 11
-16.79422440669515
 21
48.94912181620387
 31
-0.0000000000000032
210
0.0000000000000001
220
0.0000000000000001
230
1.0
 40
0.548259439690723
 41
3.701190177637934
 42
3.809603617108665
  0
ELLIPSE
  5
50A
330
1F
100
AcDbEntity
  8
0
100
AcDbEllipse
 10
2381.294817854944
 20
762.1694284432184
 30
0.0
 11
-16.79422440669515
 21
48.94912181620387
 31
-0.0000000000000032
210
0.0000000000000001
220
0.0000000000000001
230
1.0
 40
0.548259439690723
 41
4.496839293541307
 42
4.605252733012042
  0
ELLIPSE
  5
50B
330
1F
100
AcDbEntity
  8
0
100
AcDbEllipse
 10
2381.294817854944
 20
591.1740099054846
 30
0.0
 11
-16.79422440669515
 21
48.94912181620387
 31
-0.0000000000000032
210
0.0000000000000001
220
0.0000000000000001
230
1.0
 40
0.548259439690723
 41
3.701190177637929
 42
3.80960361710867
  0
ELLIPSE
  5
50C
330
1F
100
AcDbEntity
  8
0
100
AcDbEllipse
 10
2381.294817854944
 20
591.1740099054846
 30
0.0
 11
-16.79422440669515
 21
48.94912181620387
 31
-0.0000000000000032
210
0.0000000000000001
220
0.0000000000000001
230
1.0
 40
0.548259439690723
 41
4.496839293541308
 42
4.605252733012044
  0
LINE
  5
50D
330
1F
100
AcDbEntity
  8
0
100
AcDbLine
 10
2409.773594465028
 20
838.9396943474627
 30
0.0
 11
2409.773594465028
 21
492.109364294513
 31
0.0
210
0.0
220
0.8962024032375964
230
0.4436454129495272
  0
ELLIPSE
  5
50E
330
1F
100
AcDbEntity
  8
0
100
AcDbEllipse
 10
2407.020681206042
 20
840.5189392042636
 30
0.0
 11
1.46036733971262
 21
-4.256445375322075
 31
0.0000000000000013
210
0.0
220
0.0000000000000003
230
1.0
 40
0.5482594396907229
 41
1.011628801735203
 42
1.169585490530634
  0
HATCH
  5
50F
330
1F
100
AcDbEntity
  8
0
370
     5
100
AcDbHatch
 10
0.0
 20
0.0
 30
0.0
210
0.0
220
0.0
230
1.0
  2
HEX
 70
     0
 71
     1
 91
        1
 92
       33
 93
        7
 72
     1
 10
2329.22716982805
 20
533.6302908592302
 11
2406.308741079668
 21
489.4114348688241
 72
     3
 10
2329.22716982805
 20
537.6632016738009
 11
1.460367339712622
 21
-4.256445375322079
 40
0.5482594396907229
 50
221.2218308917179
 51
341.0631351043204
 73
     1
 72
     1
 10
2326.474256569064
 20
880.4323754509702
 11
2326.474256569064
 21
539.2424465306
 72
     3
 10
2406.308741079668
 20
493.4443456833947
 11
1.460367339712622
 21
-4.256445375322079
 40
0.5482594396907229
 50
341.0631351043199
 51
401.2218308917152
 73
     1
 72
     1
 10
2409.061654338654
 20
491.8651008265938
 11
2409.061654338656
 21
838.6954308795434
 72
     3
 10
2406.697966256891
 20
847.4645359548418
 11
-18.00000000000041
 21
0.000000000000161
 40
0.4436454129495204
 50
18.93686489567897
 51
106.238374752397
 73
     1
 72
     1
 10
2326.474256569064
 20
880.4323754509702
 11
2392.459163729432
 21
842.5792665964532
 97
        7
330
510
330
511
330
512
330
515
330
514
330
583
330
584
 75
     0
 76
     1
 52
0.0
 41
0.6
 77
     0
 78
     3
 53
0.0
 43
5560.574470422807
 44
-1264.783386300637
 45
0.0
 46
3.299555999999998
 79
     2
 49
1.904999999999999
 49
-3.809999999999999
 53
120.0
 43
5560.574470422807
 44
-1264.783386300637
 45
-2.857499317209367
 46
-1.649777999999998
 79
     2
 49
1.904999999999997
 49
-3.809999999999994
 53
60.0
 43
5562.479470422807
 44
-1264.783386300637
 45
-2.857499317209367
 46
1.649777999999999
 79
     2
 49
1.904999999999999
 49
-3.809999999999998
 98
        1
 10
5560.574470422807
 20
-1264.783386300637
1001
ACAD
1010
0.0
1020
0.0
1030
0.0
  0
LINE
  5
510
102
{ACAD_REACTORS
330
50F
102
}
330
1F
100
AcDbEntity
  8
0
100
AcDbLine
 10
2329.22716982805
 20
533.6302908592302
 30
0.0
 11
2406.308741079668
 21
489.4114348688241
 31
0.0
210
0.0
220
0.8962024032375964
230
0.4436454129495272
  0
ELLIPSE
  5
511
102
{ACAD_REACTORS
330
50F
102
}
330
1F
100
AcDbEntity
  8
0
100
AcDbEllipse
 10
2329.22716982805
 20
537.6632016738009
 30
0.0
 11
1.46036733971262
 21
-4.256445375322075
 31
0.0000000000000013
210
0.0
220
0.0000000000000003
230
1.0
 40
0.5482594396907229
 41
4.153221455325001
 42
5.724017782119878
  0
LINE
  5
512
102
{ACAD_REACTORS
330
50F
102
}
330
1F
100
AcDbEntity
  8
0
100
AcDbLine
 10
2326.474256569064
 20
880.4323754509702
 30
0.0
 11
2326.474256569064
 21
539.2424465306
 31
0.0
210
0.0
220
0.8962024032375964
230
0.4436454129495272
  0
ELLIPSE
  5
513
330
1F
100
AcDbEntity
  8
0
100
AcDbEllipse
 10
2406.308741079668
 20
840.2746757363425
 30
0.0
 11
-1.46036733971262
 21
4.256445375322075
 31
-0.0000000000000013
210
0.0
220
0.0000000000000003
230
1.0
 40
0.5482594396907229
 41
4.153221455325018
 42
4.357118858910471
  0
LINE
  5
514
102
{ACAD_REACTORS
330
50F
102
}
330
1F
100
AcDbEntity
  8
0
100
AcDbLine
 10
2409.061654338654
 20
491.8651008265938
 30
0.0
 11
2409.061654338656
 21
838.6954308795434
 31
0.0
210
0.0
220
0.8962024032375964
230
0.4436454129495272
  0
ELLIPSE
  5
515
102
{ACAD_REACTORS
330
50F
102
}
330
1F
100
AcDbEntity
  8
0
100
AcDbEllipse
 10
2406.308741079668
 20
493.4443456833947
 30
0.0
 11
1.46036733971262
 21
-4.256445375322075
 31
0.0000000000000013
210
0.0
220
0.0000000000000003
230
1.0
 40
0.5482594396907229
 41
5.724017782119864
 42
7.294814108914752
  0
ELLIPSE
  5
516
330
1F
100
AcDbEntity
  8
0
100
AcDbEllipse
 10
2407.020681206042
 20
493.688609151312
 30
0.0
 11
1.46036733971262
 21
-4.256445375322075
 31
0.0000000000000013
210
0.0
220
0.0000000000000003
230
1.0
 40
0.5482594396907229
 41
-0.0000000000000327
 42
1.011628801735203
  0
LINE
  5
517
330
1F
100
AcDbEntity
  8
0
100
AcDbLine
 10
2680.996411751138
 20
945.0783703608109
 30
0.0
 11
2680.996411751138
 21
935.3993844058447
 31
0.0
210
0.0
220
0.8962024032375964
230
0.4436454129495272
  0
LINE
  5
518
330
1F
100
AcDbEntity
  8
0
100
AcDbLine
 10
2309.414064398082
 20
902.6257737856546
 30
0.0
 11
2309.414064398082
 21
892.9467878306901
 31
0.0
210
0.0
220
0.8962024032375964
230
0.4436454129495272
  0
LINE
  5
519
330
1F
100
AcDbEntity
  8
0
100
AcDbLine
 10
2680.996411751138
 20
562.7584251396516
 30
0.0
 11
2680.996411751138
 21
572.4374110946179
 31
0.0
210
0.0
220
0.8962024032375964
230
0.4436454129495272
  0
LINE
  5
51A
330
1F
100
AcDbEntity
  8
0
100
AcDbLine
 10
2309.414064398082
 20
520.3058285644971
 30
0.0
 11
2309.414064398082
 21
529.9848145194633
 31
0.0
210
0.0
220
0.8962024032375964
230
0.4436454129495272
  0
LINE
  5
51B
330
1F
100
AcDbEntity
  8
0
100
AcDbLine
 10
2408.481048545754
 20
489.4321637759918
 30
0.0
 11
2407.769108419382
 21
489.1879003080727
 31
0.0
210
0.0
220
0.8962024032375964
230
0.4436454129495272
  0
LINE
  5
51C
330
1F
100
AcDbEntity
  8
0
100
AcDbLine
 10
3019.0267222761
 20
701.5133336495115
 30
0.0
 11
3255.041311955885
 21
889.5036302704871
 31
0.0
210
0.0000000000000002
220
0.531757475619399
230
0.8468966803116448
  0
ELLIPSE
  5
51D
330
1F
100
AcDbEntity
  8
0
100
AcDbEllipse
 10
3242.709340877679
 20
900.6080731874268
 30
0.0
 11
18.0
 21
0.0000000000000007
 31
-0.0000000000000019
210
0.0000000000000001
220
0.0
230
1.0
 40
0.8468966803116449
 41
5.467142995788305
 42
6.283185307179571
  0
ELLIPSE
  5
51E
330
1F
100
AcDbEntity
  8
0
100
AcDbEllipse
 10
2917.904559434809
 20
792.5697655684222
 30
0.0000000000005457
 11
-18.0
 21
-0.0000000000000007
 31
0.0000000000000019
210
0.0000000000000001
220
0.0
230
1.0
 40
0.8468966803116449
 41
-0.0000000000000011
 42
0.7547540154036203
  0
ELLIPSE
  5
51F
330
1F
100
AcDbEntity
  8
0
100
AcDbEllipse
 10
2917.904559434809
 20
798.3127463051101
 30
0.0
 11
-18.0
 21
-0.0000000000000007
 31
0.0000000000000019
210
0.0000000000000001
220
0.0
230
1.0
 40
0.8468966803116449
 41
5.467142995788303
 42
7.037939322583204
  0
LINE
  5
520
330
1F
100
AcDbEntity
  8
0
100
AcDbLine
 10
2905.572588356604
 20
809.4171892220517
 30
0.0
 11
3141.587178036388
 21
997.4074858430272
 31
0.0
210
0.0000000000000002
220
0.531757475619399
230
0.8468966803116448
  0
ELLIPSE
  5
521
330
1F
100
AcDbEntity
  8
0
100
AcDbEllipse
 10
3153.919149114595
 20
986.3030429260875
 30
0.0000000000005457
 11
18.0
 21
0.0000000000000007
 31
-0.0000000000000019
210
0.0000000000000001
220
0.0
230
1.0
 40
0.8468966803116449
 41
0.75475401540363
 42
2.325550342198517
  0
LINE
  5
522
330
1F
100
AcDbEntity
  8
0
100
AcDbLine
 10
3167.031070763472
 20
996.74694829392
 30
0.0
 11
3255.821262526556
 21
916.7949592919491
 31
0.0
210
0.0000000000000002
220
0.531757475619399
230
0.8468966803116448
  0
ELLIPSE
  5
523
330
1F
100
AcDbEntity
  8
0
100
AcDbEllipse
 10
3242.709340877679
 20
906.3510539241184
 30
0.0
 11
18.0
 21
0.0000000000000007
 31
-0.0000000000000019
210
0.0000000000000001
220
0.0
230
1.0
 40
0.8468966803116449
 41
5.467142995788305
 42
7.037939322583198
  0
LINE
  5
524
330
1F
100
AcDbEntity
  8
0
100
AcDbLine
 10
3255.041311955885
 20
895.2466110071769
 30
0.0
 11
3019.0267222761
 21
707.2563143862013
 31
0.0
210
0.0000000000000002
220
0.531757475619399
230
0.8468966803116448
  0
LINE
  5
525
330
1F
100
AcDbEntity
  8
0
100
AcDbLine
 10
2904.792637785932
 20
782.1258602005897
 30
0.0
 11
2993.582829549016
 21
702.1738711986205
 31
0.0
210
0.0000000000000002
220
0.531757475619399
230
0.8468966803116448
  0
LINE
  5
526
330
1F
100
AcDbEntity
  8
0
100
AcDbLine
 10
2993.582829549016
 20
707.9168519353085
 30
0.0
 11
2904.792637785932
 21
787.8688409372795
 31
0.0
210
0.0000000000000002
220
0.531757475619399
230
0.8468966803116448
  0
ELLIPSE
  5
527
330
1F
100
AcDbEntity
  8
0
100
AcDbEllipse
 10
3006.694751197894
 20
718.360757303141
 30
0.0000000000005457
 11
-18.0
 21
-0.0000000000000007
 31
0.0000000000000019
210
0.0000000000000001
220
0.0
230
1.0
 40
0.8468966803116449
 41
0.7547540154036115
 42
2.325550342198511
  0
ELLIPSE
  5
528
330
1F
100
AcDbEntity
  8
0
100
AcDbEllipse
 10
3006.694751197894
 20
712.6177765664512
 30
0.0000000000005457
 11
18.0
 21
0.0000000000000007
 31
-0.0000000000000019
210
0.0000000000000001
220
0.0
230
1.0
 40
0.8468966803116449
 41
3.896346668993404
 42
5.467142995788306
  0
LINE
  5
529
330
1F
100
AcDbEntity
  8
0
100
AcDbLine
 10
3120.680924568028
 20
877.1660848552224
 30
0.0
 11
3048.565355499205
 21
819.7246053321475
 31
0.0
210
0.0000000000000002
220
0.531757475619399
230
0.8468966803116448
  0
ELLIPSE
  5
52A
330
1F
100
AcDbEntity
  8
0
100
AcDbEllipse
 10
3117.597931798476
 20
879.9421955844579
 30
0.0
 11
4.499999999999999
 21
0.0000000000000002
 31
-0.0000000000000005
210
0.0000000000000001
220
0.0
230
1.0
 40
0.8468966803116449
 41
5.467142995788301
 42
7.037939322583206
  0
LINE
  5
52B
330
1F
100
AcDbEntity
  8
0
100
AcDbLine
 10
3042.204382317434
 20
819.8897397194256
 30
0.0
 11
3017.540440161023
 21
842.0986255533049
 31
0.0
210
0.0000000000000002
220
0.531757475619399
230
0.8468966803116448
  0
ELLIPSE
  5
52C
330
1F
100
AcDbEntity
  8
0
100
AcDbEllipse
 10
3045.482362729653
 20
822.5007160613827
 30
0.0000000000005457
 11
-4.499999999999999
 21
-0.0000000000000002
 31
0.0000000000000005
210
0.0000000000000001
220
0.0
230
1.0
 40
0.8468966803116449
 41
0.7547540154036158
 42
2.325550342198531
  0
LINE
  5
52D
330
1F
100
AcDbEntity
  8
0
100
AcDbLine
 10
3120.574668039018
 20
877.081449424703
 30
0.0
 11
3096.211970054284
 21
899.0190770236083
 31
0.0
210
0.0000000000000002
220
0.531757475619399
230
0.8468966803116448
  0
LINE
  5
52E
330
1F
100
AcDbEntity
  8
0
100
AcDbLine
 10
3096.211970054284
 20
904.7620577602963
 30
0.0
 11
3120.875912210696
 21
882.5531719264169
 31
0.0
210
0.0000000000000002
220
0.531757475619399
230
0.8468966803116448
  0
ELLIPSE
  5
52F
330
1F
100
AcDbEntity
  8
0
100
AcDbEllipse
 10
3092.933989642063
 20
896.4081006816492
 30
0.0
 11
-4.499999999999999
 21
-0.0000000000000002
 31
0.0000000000000005
210
0.0000000000000001
220
0.0
230
1.0
 40
0.8468966803116449
 41
3.896346668993412
 42
5.467142995788321
  0
ELLIPSE
  5
530
330
1F
100
AcDbEntity
  8
0
100
AcDbEllipse
 10
3092.933989642063
 20
902.151081418339
 30
0.0
 11
4.499999999999999
 21
0.0000000000000002
 31
-0.0000000000000005
210
0.0000000000000001
220
0.0
230
1.0
 40
0.8468966803116449
 41
0.7547540154036195
 42
2.325550342198505
  0
LINE
  5
531
330
1F
100
AcDbEntity
  8
0
100
AcDbLine
 10
3089.850996872513
 20
899.1842114108846
 30
0.0
 11
3017.841684332699
 21
841.8273673183289
 31
0.0
210
0.0000000000000002
220
0.531757475619399
230
0.8468966803116448
  0
LINE
  5
532
330
1F
100
AcDbEntity
  8
0
100
AcDbLine
 10
3017.73542780369
 20
847.4857126244975
 30
0.0
 11
3089.850996872513
 21
904.9271921475744
 31
0.0
210
0.0000000000000002
220
0.531757475619399
230
0.8468966803116448
  0
ELLIPSE
  5
533
330
1F
100
AcDbEntity
  8
0
100
AcDbEllipse
 10
3020.818420573242
 20
844.709601895262
 30
0.0000000000005457
 11
-4.499999999999999
 21
-0.0000000000000002
 31
0.0000000000000005
210
0.0000000000000001
220
0.0
230
1.0
 40
0.8468966803116449
 41
5.467142995788309
 42
7.037939322583201
  0
LINE
  5
534
330
1F
100
AcDbEntity
  8
0
100
AcDbLine
 10
3011.627539629178
 20
492.8142217738192
 30
0.0
 11
3019.0267222761
 21
486.1515560236553
 31
0.0
210
0.0000000000000002
220
0.531757475619399
230
0.8468966803116448
  0
LINE
  5
535
330
1F
100
AcDbEntity
  8
0
100
AcDbLine
 10
3019.0267222761
 20
701.5133336495115
 30
0.0
 11
3255.041311955885
 21
889.5036302704871
 31
0.0
210
0.0000000000000002
220
0.531757475619399
230
0.8468966803116448
  0
LINE
  5
536
330
1F
100
AcDbEntity
  8
0
100
AcDbLine
 10
3255.041311955885
 20
889.5036302704871
 30
0.0
 11
3255.041311955885
 21
674.141852644631
 31
0.0
210
0.0000000000000002
220
0.531757475619399
230
0.8468966803116448
  0
LINE
  5
537
330
1F
100
AcDbEntity
  8
0
100
AcDbLine
 10
3255.041311955885
 20
674.141852644631
 30
0.0
 11
3019.0267222761
 21
486.1515560236553
 31
0.0
210
0.0000000000000002
220
0.531757475619399
230
0.8468966803116448
  0
LINE
  5
538
330
1F
100
AcDbEntity
  8
0
100
AcDbLine
 10
3019.0267222761
 20
486.1515560236553
 30
0.0
 11
3019.0267222761
 21
701.5133336495115
 31
0.0
210
0.0000000000000002
220
0.531757475619399
230
0.8468966803116448
  0
LINE
  5
539
330
1F
100
AcDbEntity
  8
0
100
AcDbLine
 10
3011.627539629178
 20
697.9572245190471
 30
0.0
 11
3011.627539629178
 21
492.8142217738192
 31
0.0
210
0.0000000000000002
220
0.531757475619399
230
0.8468966803116448
  0
LINE
  5
53A
330
1F
100
AcDbEntity
  8
0
100
AcDbLine
 10
3255.821262526556
 20
695.6902009294032
 30
0.0
 11
3255.041311955885
 21
696.3925149824541
 31
0.0000000000005457
210
0.0000000000000002
220
0.531757475619399
230
0.8468966803116448
  0
LINE
  5
53B
330
1F
100
AcDbEntity
  8
0
100
AcDbLine
 10
3019.0267222761
 20
486.1515560236553
 30
0.0
 11
3255.041311955885
 21
674.141852644631
 31
0.0
210
0.0000000000000002
220
0.531757475619399
230
0.8468966803116448
  0
ELLIPSE
  5
53C
330
1F
100
AcDbEntity
  8
0
100
AcDbEllipse
 10
3242.709340877679
 20
685.2462955615707
 30
0.0000000000005457
 11
18.0
 21
0.0000000000000007
 31
-0.0000000000000019
210
0.0000000000000001
220
0.0
230
1.0
 40
0.8468966803116449
 41
5.467142995788301
 42
7.037939322583205
  0
ELLIPSE
  5
53D
330
1F
100
AcDbEntity
  8
0
100
AcDbEllipse
 10
2917.904559434809
 20
577.2079879425643
 30
0.0000000000005457
 11
-18.0
 21
-0.0000000000000007
 31
0.0000000000000019
210
0.0000000000000001
220
0.0
230
1.0
 40
0.8468966803116449
 41
5.467142995788311
 42
7.037939322583192
  0
LINE
  5
53E
330
1F
100
AcDbEntity
  8
0
100
AcDbLine
 10
2904.792637785932
 20
566.7640825747335
 30
0.0
 11
2993.582829549016
 21
486.8120935727644
 31
0.0
210
0.0000000000000002
220
0.531757475619399
230
0.8468966803116448
  0
LINE
  5
53F
330
1F
100
AcDbEntity
  8
0
100
AcDbLine
 10
3255.041311955885
 20
668.3988719079413
 30
0.0
 11
3019.0267222761
 21
480.4085752869656
 31
0.0
210
0.0000000000000002
220
0.531757475619399
230
0.8468966803116448
  0
ELLIPSE
  5
540
330
1F
100
AcDbEntity
  8
0
100
AcDbEllipse
 10
3242.709340877679
 20
679.5033148248809
 30
0.0
 11
18.0
 21
0.0000000000000007
 31
-0.0000000000000019
210
0.0000000000000001
220
0.0
230
1.0
 40
0.8468966803116449
 41
5.467142995788305
 42
6.283185307179586
  0
ELLIPSE
  5
541
330
1F
100
AcDbEntity
  8
0
100
AcDbEllipse
 10
2917.904559434809
 20
571.4650072058763
 30
0.0
 11
-18.0
 21
-0.0000000000000007
 31
0.0000000000000019
210
0.0000000000000001
220
0.0
230
1.0
 40
0.8468966803116449
 41
-0.0000000000000094
 42
0.7547540154036177
  0
LINE
  5
542
330
1F
100
AcDbEntity
  8
0
100
AcDbLine
 10
2993.582829549016
 20
481.0691128360746
 30
0.0
 11
2904.792637785932
 21
561.0211018380438
 31
0.0
210
0.0000000000000002
220
0.531757475619399
230
0.8468966803116448
  0
ELLIPSE
  5
543
330
1F
100
AcDbEntity
  8
0
100
AcDbEllipse
 10
3006.694751197894
 20
491.5130182039052
 30
0.0
 11
18.0
 21
0.0000000000000007
 31
-0.0000000000000019
210
0.0000000000000001
220
0.0
230
1.0
 40
0.8468966803116449
 41
3.896346668993415
 42
5.467142995788306
  0
ELLIPSE
  5
544
330
1F
100
AcDbEntity
  8
0
100
AcDbEllipse
 10
3006.694751197894
 20
497.255998940595
 30
0.0
 11
-18.0
 21
-0.0000000000000007
 31
0.0000000000000019
210
0.0000000000000001
220
0.0
230
1.0
 40
0.8468966803116449
 41
0.7547540154036229
 42
2.325550342198508
  0
LINE
  5
545
330
1F
100
AcDbEntity
  8
0
100
AcDbLine
 10
3120.574668039018
 20
877.081449424703
 30
0.0
 11
3096.211970054284
 21
899.0190770236083
 31
0.0
210
0.0000000000000002
220
0.531757475619399
230
0.8468966803116448
  0
LINE
  5
546
330
1F
100
AcDbEntity
  8
0
100
AcDbLine
 10
3090.662583069091
 20
899.6980203866829
 30
0.0
 11
3090.662583069091
 21
890.6157879506213
 31
0.0
210
0.0000000000000002
220
0.531757475619399
230
0.8468966803116448
  0
LINE
  5
547
330
1F
100
AcDbEntity
  8
0
100
AcDbLine
 10
3090.662583069091
 20
890.6157879506213
 30
0.0
 11
3023.271842979927
 21
836.9377283185555
 31
0.0
210
0.0000000000000002
220
0.531757475619399
230
0.8468966803116448
  0
LINE
  5
548
330
1F
100
AcDbEntity
  8
0
100
AcDbLine
 10
3090.662583069091
 20
890.6157879506213
 30
0.0
 11
3112.678115176149
 21
870.7916886222561
 31
0.0
210
0.0000000000000002
220
0.531757475619399
230
0.8468966803116448
  0
LINE
  5
549
330
1F
100
AcDbEntity
  8
0
100
AcDbLine
 10
2912.971771003526
 20
581.649765109342
 30
0.0
 11
2905.572588356604
 21
588.3124308595057
 31
0.0
210
0.0000000000000002
220
0.531757475619399
230
0.8468966803116448
  0
LINE
  5
54A
330
1F
100
AcDbEntity
  8
0
100
AcDbLine
 10
2905.572588356604
 20
588.3124308595057
 30
0.0
 11
2905.572588356604
 21
781.4235461475387
 31
0.0
210
0.0000000000000002
220
0.531757475619399
230
0.8468966803116448
  0
LINE
  5
54B
330
1F
100
AcDbEntity
  8
0
100
AcDbLine
 10
2912.971771003526
 20
581.649765109342
 30
0.0
 11
2916.710359855523
 21
584.6276251991936
 31
0.0
210
0.0000000000000002
220
0.531757475619399
230
0.8468966803116448
  0
LINE
  5
54C
330
1F
100
AcDbEntity
  8
0
100
AcDbLine
 10
2912.971771003526
 20
774.7608803973731
 30
0.0
 11
2912.971771003526
 21
581.649765109342
 31
0.0
210
0.0000000000000002
220
0.531757475619399
230
0.8468966803116448
  0
LINE
  5
54D
330
1F
100
AcDbEntity
  8
0
100
AcDbLine
 10
3009.855739024514
 20
516.6603191438794
 30
0.0
 11
3011.627539629178
 21
515.0648841116441
 31
0.0
210
0.0000000000000002
220
0.531757475619399
230
0.8468966803116448
  0
ELLIPSE
  5
54E
330
1F
100
AcDbEntity
  8
0
100
AcDbEllipse
 10
2983.278729954556
 20
702.3025777279241
 30
0.0000000000005457
 11
-32.24199744667496
 21
40.47858817509083
 31
0.0000000000000069
210
0.0000000000000002
220
0.0
230
1.0
 40
0.3643121005532411
 41
2.847244011164223
 42
2.871583449610483
  0
ELLIPSE
  5
54F
330
1F
100
AcDbEntity
  8
0
100
AcDbEllipse
 10
2975.41157696523
 20
696.0362345072249
 30
0.0000000000005457
 11
-32.24199744667496
 21
40.47858817509083
 31
0.0000000000000069
210
0.0000000000000002
220
0.0
230
1.0
 40
0.3643121005532411
 41
3.331272593931896
 42
3.570566678581324
  0
ELLIPSE
  5
550
330
1F
100
AcDbEntity
  8
0
100
AcDbEllipse
 10
2975.41157696523
 20
696.0362345072249
 30
0.0000000000005457
 11
-32.24199744667496
 21
40.47858817509083
 31
0.0000000000000069
210
0.0000000000000002
220
0.0
230
1.0
 40
0.3643121005532411
 41
3.570566678581324
 42
3.809860763230755
  0
ELLIPSE
  5
551
330
1F
100
AcDbEntity
  8
0
100
AcDbEllipse
 10
2983.278729954556
 20
600.8432513797421
 30
0.0
 11
-32.24199744667496
 21
40.47858817509083
 31
0.0000000000000069
210
0.0000000000000002
220
0.0
230
1.0
 40
0.3643121005532411
 41
2.847244011164228
 42
2.871583449610491
  0
ELLIPSE
  5
552
330
1F
100
AcDbEntity
  8
0
100
AcDbEllipse
 10
2975.41157696523
 20
594.5769081590429
 30
0.0000000000005457
 11
-32.24199744667496
 21
40.47858817509083
 31
0.0000000000000069
210
0.0000000000000002
220
0.0
230
1.0
 40
0.3643121005532411
 41
3.331272593931899
 42
3.570566678581327
  0
ELLIPSE
  5
553
330
1F
100
AcDbEntity
  8
0
100
AcDbEllipse
 10
2975.41157696523
 20
594.5769081590429
 30
0.0000000000005457
 11
-32.24199744667496
 21
40.47858817509083
 31
0.0000000000000069
210
0.0000000000000002
220
0.0
230
1.0
 40
0.3643121005532411
 41
3.570566678581327
 42
3.809860763230753
  0
LINE
  5
554
330
1F
100
AcDbEntity
  8
0
100
AcDbLine
 10
3009.855739024514
 20
697.6105342585439
 30
0.0
 11
3009.855739024513
 21
501.4205403204129
 31
0.0
210
0.0000000000000002
220
0.531757475619399
230
0.8468966803116448
  0
HATCH
  5
555
330
1F
100
AcDbEntity
  8
0
370
     5
100
AcDbHatch
 10
0.0
 20
0.0
 30
0.0
210
0.0
220
0.0
230
1.0
  2
HEX
 70
     0
 71
     1
 91
        1
 92
        1
 93
        7
 72
     1
 10
2916.710359855523
 20
771.3944318196396
 11
2993.582829549016
 21
702.1738711986205
 72
     3
 10
3006.694751197897
 20
712.6177765664493
 11
-18.00000000000057
 21
0.0000000000028149
 40
0.8468966803116135
 50
38.53801626242366
 51
99.4232948038512
 73
     1
 72
     1
 10
3009.20014294207
 20
697.5220240894529
 11
3009.20014294207
 21
500.8983450520214
 72
     3
 10
3006.117150172518
 20
503.674455781255
 11
2.80365195188478
 21
-3.519877232616594
 40
0.364312100553241
 50
-9.460222861151674
 51
38.53801626241568
 73
     0
 72
     1
 10
3006.117150172518
 20
501.2815471409691
 11
2919.793352625074
 21
579.0126475595504
 72
     3
 10
2919.793352625074
 20
581.4055561998363
 11
2.80365195188478
 21
-3.519877232616594
 40
0.364312100553241
 50
38.53801626241568
 51
170.5397771388485
 73
     0
 72
     1
 10
2916.710359855523
 20
584.1816669290716
 11
2916.710359855523
 21
771.3944318196396
 97
        7
330
585
330
586
330
559
330
55A
330
556
330
557
330
558
 75
     0
 76
     1
 52
0.0
 41
0.6
 77
     0
 78
     3
 53
0.0
 43
5467.973377189633
 44
-1277.126623531914
 45
0.0
 46
3.299555999999998
 79
     2
 49
1.904999999999999
 49
-3.809999999999999
 53
120.0
 43
5467.973377189633
 44
-1277.126623531914
 45
-2.857499317209367
 46
-1.649777999999998
 79
     2
 49
1.904999999999996
 49
-3.809999999999993
 53
60.0
 43
5469.878377189633
 44
-1277.126623531914
 45
-2.857499317209367
 46
1.649777999999999
 79
     2
 49
1.904999999999999
 49
-3.809999999999998
 98
        1
 10
5467.973377189633
 20
-1277.126623531914
1001
ACAD
1010
0.0
1020
0.0
1030
0.0
  0
LINE
  5
556
102
{ACAD_REACTORS
330
555
102
}
330
1F
100
AcDbEntity
  8
0
100
AcDbLine
 10
2919.793352625074
 20
579.0126475595504
 30
0.0
 11
3006.117150172518
 21
501.2815471409691
 31
0.0
210
0.0000000000000002
220
0.531757475619399
230
0.8468966803116448
  0
ELLIPSE
  5
557
102
{ACAD_REACTORS
330
555
102
}
330
1F
100
AcDbEntity
  8
0
100
AcDbEllipse
 10
2919.793352625074
 20
581.4055561998363
 30
0.0000000000005457
 11
2.80365195188478
 21
-3.519877232616594
 31
0.0000000000000001
210
0.0000000000000001
220
0.0000000000000001
230
1.0
 40
0.364312100553241
 41
3.57056667858131
 42
5.141363005376207
  0
LINE
  5
558
102
{ACAD_REACTORS
330
555
102
}
330
1F
100
AcDbEntity
  8
0
100
AcDbLine
 10
2916.710359855523
 20
771.3944318196396
 30
0.0
 11
2916.710359855523
 21
584.1816669290716
 31
0.0
210
0.0000000000000002
220
0.531757475619399
230
0.8468966803116448
  0
LINE
  5
559
102
{ACAD_REACTORS
330
555
102
}
330
1F
100
AcDbEntity
  8
0
100
AcDbLine
 10
3009.20014294207
 20
500.8983450520214
 30
0.0
 11
3009.20014294207
 21
697.5220240894529
 31
0.0
210
0.0000000000000002
220
0.531757475619399
230
0.8468966803116448
  0
ELLIPSE
  5
55A
102
{ACAD_REACTORS
330
555
102
}
330
1F
100
AcDbEntity
  8
0
100
AcDbEllipse
 10
3006.117150172518
 20
503.674455781255
 30
0.0
 11
2.80365195188478
 21
-3.519877232616594
 31
0.0000000000000001
210
0.0000000000000001
220
0.0000000000000001
230
1.0
 40
0.364312100553241
 41
5.141363005376207
 42
6.712159332171111
  0
ELLIPSE
  5
55B
330
1F
100
AcDbEntity
  8
0
100
AcDbEllipse
 10
3006.772746254962
 20
504.1966510496464
 30
0.0
 11
2.80365195188478
 21
-3.519877232616594
 31
0.0000000000000001
210
0.0000000000000001
220
0.0000000000000001
230
1.0
 40
0.364312100553241
 41
-0.0000000000000674
 42
0.4289740249915251
  0
SPLINE
  5
55C
330
1F
100
AcDbEntity
  8
0
100
AcDbSpline
210
-0.0000000000185301
220
0.0000000000142205
230
-1.0
 70
     8
 71
     3
 72
    12
 73
     8
 74
     0
 42
0.0000000001
 43
0.0000000001
 40
0.4974164823840572
 40
0.4974164823840572
 40
0.4974164823840572
 40
0.4974164823840572
 40
0.8942478184687299
 40
0.8942478184687299
 40
1.267348176174323
 40
1.267348176174323
 40
1.640448533879917
 40
1.640448533879917
 40
1.640448533879917
 40
1.640448533879917
 10
3040.003813651692
 20
838.1431449585258
 30
0.0
 10
3039.926475641041
 20
838.081442910529
 30
0.0000000000005457
 10
3039.855256797494
 20
838.0145768294756
 30
0.0
 10
3039.737063031807
 20
837.8842202591155
 30
0.0
 10
3039.678813193586
 20
837.8097201536716
 30
0.0
 10
3039.574704693011
 20
837.6459228802966
 30
0.0
 10
3039.528852953786
 20
837.5564517886983
 30
0.0
 10
3039.492236039361
 20
837.4668744955167
 30
0.0
  0
ELLIPSE
  5
55D
330
1F
100
AcDbEntity
  8
0
100
AcDbEllipse
 10
3042.468909106824
 20
834.4405349501581
 30
0.0
 11
-3.15
 21
-0.0000000000000001
 31
0.0000000000000004
210
0.0000000000000001
220
-0.0000000000000001
230
1.0
 40
0.8468966803116446
 41
-0.000000000000063
 42
0.7547540154036465
  0
LINE
  5
55E
330
1F
100
AcDbEntity
  8
0
100
AcDbLine
 10
3040.174322818231
 20
832.612851510758
 30
0.0
 11
3051.707679508815
 21
822.2275286617902
 31
0.0
210
0.0000000000000002
220
0.531757475619399
230
0.8468966803116448
  0
ELLIPSE
  5
55F
330
1F
100
AcDbEntity
  8
0
100
AcDbEllipse
 10
3054.925234673257
 20
845.7979902337726
 30
0.0
 11
-1.575
 21
-0.000000000000001
 31
0.0000000000000002
210
0.0000000000000001
220
0.0
230
1.0
 40
0.8468966803116446
 41
0.0
 42
6.283185307179586
  0
ELLIPSE
  5
560
330
1F
100
AcDbEntity
  8
0
100
AcDbEllipse
 10
3056.096254536943
 20
834.8923420259586
 30
0.0
 11
-10.62
 21
0.0000000000000032
 31
0.0000000000000019
210
0.0000000000000002
220
0.0
230
1.0
 40
0.8468966803116448
 41
-0.0000000000000114
 42
1.591740692481958
  0
ELLIPSE
  5
561
330
1F
100
AcDbEntity
  8
0
100
AcDbEllipse
 10
3056.096254536943
 20
834.8923420259586
 30
0.0
 11
-10.62
 21
0.0000000000000032
 31
0.0000000000000019
210
0.0000000000000002
220
0.0
230
1.0
 40
0.8468966803116448
 41
3.059359991915063
 42
3.141592653589792
  0
ELLIPSE
  5
562
330
1F
100
AcDbEntity
  8
0
100
AcDbEllipse
 10
3054.925234673275
 20
846.5158628258729
 30
0.0
 11
-2.699999999973569
 21
-0.0000000000000007
 31
0.0000000000000008
210
0.0000000000000003
220
-0.0000000000000001
230
1.0
 40
0.8468966803116449
 41
1.977803631149636
 42
7.037939322583149
  0
ELLIPSE
  5
563
330
1F
100
AcDbEntity
  8
0
100
AcDbEllipse
 10
3054.925234673275
 20
846.5158628258729
 30
0.0
 11
-2.699999999973569
 21
-0.0000000000000007
 31
0.0000000000000008
210
0.0000000000000003
220
-0.0000000000000001
230
1.0
 40
0.8468966803116449
 41
0.754754015403563
 42
1.342480820126989
  0
LINE
  5
564
330
1F
100
AcDbEntity
  8
0
100
AcDbLine
 10
3052.976768361815
 20
823.2383830764998
 30
0.0
 11
3040.174322818268
 21
834.7664692870463
 31
0.0
210
0.0000000000000002
220
0.531757475619399
230
0.8468966803116448
  0
ELLIPSE
  5
565
330
1F
100
AcDbEntity
  8
0
100
AcDbEllipse
 10
3042.468909106804
 20
836.5941527264027
 30
0.0
 11
-3.15
 21
-0.0000000000000001
 31
0.0000000000000004
210
0.0000000000000001
220
-0.0000000000000001
230
1.0
 40
0.8468966803116446
 41
5.949908919106387
 42
7.037939322583197
  0
SPLINE
  5
566
330
1F
100
AcDbEntity
  8
0
100
AcDbSpline
210
0.0
220
0.0
230
1.0
 70
     8
 71
     3
 72
    12
 73
     8
 74
     0
 42
0.0000000001
 43
0.0000000001
 40
0.4974164823840527
 40
0.4974164823840527
 40
0.4974164823840527
 40
0.4974164823840527
 40
0.8942478184687299
 40
0.8942478184687299
 40
1.267348176174323
 40
1.267348176174323
 40
1.640448533879917
 40
1.640448533879917
 40
1.640448533879917
 40
1.640448533879917
 10
3066.227656949445
 20
859.0309556941907
 30
0.0
 10
3066.150318938794
 20
858.9692536461923
 30
0.0
 10
3066.079100095248
 20
858.9023875651388
 30
0.0
 10
3065.96090632956
 20
858.7720309947787
 30
0.0
 10
3065.902656491339
 20
858.6975308893348
 30
0.0
 10
3065.798547990765
 20
858.5337336159614
 30
0.0
 10
3065.75269625154
 20
858.4442625243633
 30
0.0
 10
3065.716079337114
 20
858.3546852311798
 30
0.0
  0
ELLIPSE
  5
567
330
1F
100
AcDbEntity
  8
0
100
AcDbEllipse
 10
3068.692752404578
 20
855.3283456858231
 30
0.0
 11
-3.15
 21
-0.0000000000000001
 31
0.0000000000000004
210
0.0000000000000001
220
-0.0000000000000001
230
1.0
 40
0.8468966803116446
 41
-0.000000000000063
 42
0.7547540154036465
  0
LINE
  5
568
330
1F
100
AcDbEntity
  8
0
100
AcDbLine
 10
3066.398166115984
 20
853.5006622464212
 30
0.0
 11
3077.931522806569
 21
843.115339397455
 31
0.0
210
0.0000000000000002
220
0.531757475619399
230
0.8468966803116448
  0
ELLIPSE
  5
569
330
1F
100
AcDbEntity
  8
0
100
AcDbEllipse
 10
3081.14907797101
 20
866.6858009694356
 30
0.0000000000005457
 11
-1.575
 21
-0.000000000000001
 31
0.0000000000000002
210
0.0000000000000001
220
0.0
230
1.0
 40
0.8468966803116446
 41
0.0
 42
6.283185307179586
  0
ELLIPSE
  5
56A
330
1F
100
AcDbEntity
  8
0
100
AcDbEllipse
 10
3082.320097834697
 20
855.7801527616216
 30
0.0
 11
-10.62
 21
0.0000000000000032
 31
0.0000000000000019
210
0.0000000000000002
220
0.0
230
1.0
 40
0.8468966803116448
 41
-0.0000000000000114
 42
1.591740692481958
  0
ELLIPSE
  5
56B
330
1F
100
AcDbEntity
  8
0
100
AcDbEllipse
 10
3082.320097834697
 20
855.7801527616216
 30
0.0
 11
-10.62
 21
0.0000000000000032
 31
0.0000000000000019
210
0.0000000000000002
220
0.0
230
1.0
 40
0.8468966803116448
 41
3.059359991915067
 42
3.141592653589792
  0
ELLIPSE
  5
56C
330
1F
100
AcDbEntity
  8
0
100
AcDbEllipse
 10
3081.149077971029
 20
867.4036735615379
 30
0.0
 11
-2.699999999973569
 21
-0.0000000000000007
 31
0.0000000000000008
210
0.0000000000000003
220
-0.0000000000000001
230
1.0
 40
0.8468966803116449
 41
1.977803631149654
 42
7.037939322583149
  0
ELLIPSE
  5
56D
330
1F
100
AcDbEntity
  8
0
100
AcDbEllipse
 10
3081.149077971029
 20
867.4036735615379
 30
0.0
 11
-2.699999999973569
 21
-0.0000000000000007
 31
0.0000000000000008
210
0.0000000000000003
220
-0.0000000000000001
230
1.0
 40
0.8468966803116449
 41
0.754754015403563
 42
1.342480820126989
  0
LINE
  5
56E
330
1F
100
AcDbEntity
  8
0
100
AcDbLine
 10
3079.200611659567
 20
844.1261938121648
 30
0.0
 11
3066.398166116024
 21
855.6542800227113
 31
0.0
210
0.0000000000000002
220
0.531757475619399
230
0.8468966803116448
  0
ELLIPSE
  5
56F
330
1F
100
AcDbEntity
  8
0
100
AcDbEllipse
 10
3068.692752404558
 20
857.4819634620659
 30
0.0
 11
-3.15
 21
-0.0000000000000001
 31
0.0000000000000004
210
0.0000000000000001
220
-0.0000000000000001
230
1.0
 40
0.8468966803116446
 41
5.949908919106425
 42
7.037939322583197
  0
LINE
  5
570
330
1F
100
AcDbEntity
  8
0
100
AcDbLine
 10
3260.709340877679
 20
906.3510539241184
 30
0.0
 11
3260.709340877679
 21
900.6080731874268
 31
0.0
210
0.0000000000000002
220
0.531757475619399
230
0.8468966803116448
  0
LINE
  5
571
330
1F
100
AcDbEntity
  8
0
100
AcDbLine
 10
2899.904559434809
 20
798.3127463051119
 30
0.0
 11
2899.904559434809
 21
792.5697655684222
 31
0.0
210
0.0000000000000002
220
0.531757475619399
230
0.8468966803116448
  0
LINE
  5
572
330
1F
100
AcDbEntity
  8
0
100
AcDbLine
 10
3260.709340877679
 20
679.5033148248827
 30
0.0
 11
3260.709340877679
 21
685.2462955615707
 31
0.0
210
0.0000000000000002
220
0.531757475619399
230
0.8468966803116448
  0
LINE
  5
573
330
1F
100
AcDbEntity
  8
0
100
AcDbLine
 10
2899.904559434809
 20
571.4650072058763
 30
0.0
 11
2899.904559434809
 21
577.2079879425643
 31
0.0
210
0.0000000000000002
220
0.531757475619399
230
0.8468966803116448
  0
LINE
  5
574
330
1F
100
AcDbEntity
  8
0
100
AcDbLine
 10
3009.576398206847
 20
500.6767738170298
 30
0.0000000000005457
 11
3008.920802124402
 21
500.1545785486383
 31
0.0
210
0.0000000000000002
220
0.531757475619399
230
0.8468966803116448
  0
LINE
  5
575
330
1F
100
AcDbEntity
  8
0
100
AcDbLine
 10
3045.476254536944
 20
835.3948528404403
 30
0.0
 11
3045.476254536944
 21
834.8923420259586
 31
0.0
210
0.0000000000000002
220
0.531757475619399
230
0.8468966803116448
  0
LINE
  5
576
330
1F
100
AcDbEntity
  8
0
100
AcDbLine
 10
3066.716254536944
 20
835.3948528404403
 30
0.0
 11
3066.716254536944
 21
834.8923420259586
 31
0.0
210
0.0000000000000002
220
0.531757475619399
230
0.8468966803116448
  0
SPLINE
  5
577
330
1F
100
AcDbEntity
  8
0
100
AcDbSpline
210
0.0
220
0.0
230
1.0
 70
     8
 71
     3
 72
    26
 73
    22
 74
     0
 42
0.0000000001
 43
0.0000000001
 40
5.528431291775963
 40
5.528431291775963
 40
5.528431291775963
 40
5.528431291775963
 40
5.846325206665095
 40
5.846325206665095
 40
6.164915303168522
 40
6.164915303168522
 40
6.484809978142552
 40
6.484809978142552
 40
6.805622538107239
 40
6.805622538107239
 40
7.126833193741795
 40
7.126833193741795
 40
7.448133193112973
 40
7.448133193112973
 40
7.76930285459488
 40
7.76930285459488
 40
8.089998081017874
 40
8.089998081017874
 40
8.409673217304678
 40
8.409673217304678
 40
8.670023945365757
 40
8.670023945365757
 40
8.670023945365757
 40
8.670023945365757
 10
3066.716254536944
 20
835.3948528404403
 30
0.0
 10
3066.716254536944
 20
836.3542717253954
 30
0.0
 10
3066.534584924984
 20
837.3134635693192
 30
0.0
 10
3065.826535492004
 20
839.135794663966
 30
0.0
 10
3065.299624122302
 20
839.9983835611243
 30
0.0
 10
3063.952866974353
 20
841.5415779164383
 30
0.0
 10
3063.132094174688
 20
842.2212200146901
 30
0.0
 10
3061.279370539259
 20
843.3282190602573
 30
0.0
 10
3060.247118396993
 20
843.7546941912357
 30
0.0
 10
3058.076117294934
 20
844.3105864182786
 30
0.0
 10
3056.937588957534
 20
844.4395480276149
 30
0.0
 10
3054.66985727363
 20
844.3865170981631
 30
0.0
 10
3053.541028645165
 20
844.2044456189565
 30
0.0
 10
3051.407681106816
 20
843.5471794327483
 30
0.0
 10
3050.403457208969
 20
843.0722016057668
 30
0.0
 10
3048.622349076569
 20
841.8769691395306
 30
0.0
 10
3047.845425246297
 20
841.1572358954169
 30
0.0
 10
3046.599289900353
 20
839.546522885274
 30
0.0
 10
3046.129373655374
 20
838.6563148355095
 30
0.0
 10
3045.59775848639
 20
836.9662698627932
 30
0.0
 10
3045.476254536944
 20
836.1806036633231
 30
0.0
 10
3045.476254536944
 20
835.3948528404403
 30
0.0
  0
LINE
  5
578
330
1F
100
AcDbEntity
  8
0
100
AcDbLine
 10
3039.318909106823
 20
834.4405349501599
 30
0.0
 11
3039.318909106823
 21
836.5941527264173
 31
0.0
210
0.0000000000000002
220
0.531757475619399
230
0.8468966803116448
  0
LINE
  5
579
330
1F
100
AcDbEntity
  8
0
100
AcDbLine
 10
3040.003802762053
 20
838.1431581587882
 30
0.0
 11
3052.789487000003
 21
848.3272089653752
 31
0.0
210
0.0000000000000002
220
0.531757475619399
230
0.8468966803116448
  0
LINE
  5
57A
330
1F
100
AcDbEntity
  8
0
100
AcDbLine
 10
3057.198477769139
 20
848.2107602005422
 30
0.0
 11
3069.932692795826
 21
836.7441128203996
 31
0.0
210
0.0000000000000002
220
0.531757475619399
230
0.8468966803116448
  0
SPLINE
  5
57B
330
1F
100
AcDbEntity
  8
0
100
AcDbSpline
210
0.0
220
0.0
230
1.0
 70
     8
 71
     3
 72
    16
 73
    12
 74
     0
 42
0.0000000001
 43
0.0000000001
 40
4.712388980384755
 40
4.712388980384755
 40
4.712388980384755
 40
4.712388980384755
 40
5.026548245743721
 40
5.026548245743721
 40
5.340707511102687
 40
5.340707511102687
 40
5.654866776461653
 40
5.654866776461653
 40
5.969026041820619
 40
5.969026041820619
 40
6.283185307179586
 40
6.283185307179586
 40
6.283185307179586
 40
6.283185307179586
 10
3052.789487000001
 20
848.3272089654025
 30
0.0
 10
3053.031109088657
 20
848.5196657460516
 30
0.0
 10
3053.306334594555
 20
848.6779383810159
 30
0.0
 10
3053.89738225879
 20
848.9139543317202
 30
0.0
 10
3054.21316351517
 20
848.9917086947576
 30
0.0
 10
3054.856609819944
 20
849.0609770046328
 30
0.0
 10
3055.184223063921
 20
849.0524892553954
 30
0.0
 10
3055.821964362026
 20
848.9498914250221
 30
0.0
 10
3056.132042511933
 20
848.8557830360175
 30
0.0
 10
3056.70627893264
 20
848.5889155076881
 30
0.0
 10
3056.970396370559
 20
848.4161383071228
 30
0.0
 10
3057.198477769117
 20
848.2107602005241
 30
0.0
  0
LINE
  5
57C
330
1F
100
AcDbEntity
  8
0
100
AcDbLine
 10
3071.700097834698
 20
856.2826635761053
 30
0.0
 11
3071.700097834698
 21
855.7801527616234
 31
0.0
210
0.0000000000000002
220
0.531757475619399
230
0.8468966803116448
  0
LINE
  5
57D
330
1F
100
AcDbEntity
  8
0
100
AcDbLine
 10
3092.940097834698
 20
856.2826635761053
 30
0.0
 11
3092.940097834698
 21
855.7801527616216
 31
0.0
210
0.0000000000000002
220
0.531757475619399
230
0.8468966803116448
  0
SPLINE
  5
57E
330
1F
100
AcDbEntity
  8
0
100
AcDbSpline
210
0.0
220
0.0
230
1.0
 70
     8
 71
     3
 72
    26
 73
    22
 74
     0
 42
0.0000000001
 43
0.0000000001
 40
5.528431291775963
 40
5.528431291775963
 40
5.528431291775963
 40
5.528431291775963
 40
5.846325206665095
 40
5.846325206665095
 40
6.164915303168522
 40
6.164915303168522
 40
6.484809978142552
 40
6.484809978142552
 40
6.805622538107239
 40
6.805622538107239
 40
7.126833193741795
 40
7.126833193741795
 40
7.448133193112973
 40
7.448133193112973
 40
7.76930285459488
 40
7.76930285459488
 40
8.089998081017874
 40
8.089998081017874
 40
8.409673217304678
 40
8.409673217304678
 40
8.670023945365757
 40
8.670023945365757
 40
8.670023945365757
 40
8.670023945365757
 10
3092.940097834698
 20
856.2826635761053
 30
0.0
 10
3092.940097834698
 20
857.2420824610587
 30
0.0
 10
3092.758428222737
 20
858.2012743049842
 30
0.0
 10
3092.050378789757
 20
860.023605399631
 30
0.0
 10
3091.523467420056
 20
860.8861942967893
 30
0.0
 10
3090.176710272107
 20
862.4293886521014
 30
0.0
 10
3089.355937472442
 20
863.1090307503534
 30
0.0
 10
3087.503213837013
 20
864.2160297959222
 30
0.0
 10
3086.470961694747
 20
864.6425049268987
 30
0.0
 10
3084.299960592686
 20
865.1983971539435
 30
0.0
 10
3083.161432255286
 20
865.327358763278
 30
0.0
 10
3080.893700571385
 20
865.2743278338281
 30
0.0
 10
3079.764871942919
 20
865.0922563546197
 30
0.0
 10
3077.63152440457
 20
864.4349901684133
 30
0.0
 10
3076.627300506722
 20
863.9600123414298
 30
0.0
 10
3074.846192374323
 20
862.7647798751956
 30
0.0
 10
3074.069268544051
 20
862.0450466310799
 30
0.0
 10
3072.823133198107
 20
860.4343336209373
 30
0.0
 10
3072.353216953127
 20
859.5441255711726
 30
0.0
 10
3071.821601784141
 20
857.8540805984562
 30
0.0
 10
3071.700097834698
 20
857.0684143989861
 30
0.0
 10
3071.700097834698
 20
856.2826635761053
 30
0.0
  0
LINE
  5
57F
330
1F
100
AcDbEntity
  8
0
100
AcDbLine
 10
3065.542752404577
 20
855.3283456858231
 30
0.0
 11
3065.542752404577
 21
857.4819634620823
 31
0.0
210
0.0000000000000002
220
0.531757475619399
230
0.8468966803116448
  0
LINE
  5
580
330
1F
100
AcDbEntity
  8
0
100
AcDbLine
 10
3066.227646059807
 20
859.0309688944531
 30
0.0
 11
3079.013330297757
 21
869.2150197010384
 31
0.0
210
0.0000000000000002
220
0.531757475619399
230
0.8468966803116448
  0
LINE
  5
581
330
1F
100
AcDbEntity
  8
0
100
AcDbLine
 10
3083.422321066893
 20
869.0985709362054
 30
0.0
 11
3096.156536093579
 21
857.6319235560646
 31
0.0
210
0.0000000000000002
220
0.531757475619399
230
0.8468966803116448
  0
SPLINE
  5
582
330
1F
100
AcDbEntity
  8
0
100
AcDbSpline
210
0.0
220
0.0
230
1.0
 70
     8
 71
     3
 72
    16
 73
    12
 74
     0
 42
0.0000000001
 43
0.0000000001
 40
4.712388980384755
 40
4.712388980384755
 40
4.712388980384755
 40
4.712388980384755
 40
5.026548245743721
 40
5.026548245743721
 40
5.340707511102687
 40
5.340707511102687
 40
5.654866776461653
 40
5.654866776461653
 40
5.969026041820619
 40
5.969026041820619
 40
6.283185307179586
 40
6.283185307179586
 40
6.283185307179586
 40
6.283185307179586
 10
3079.013330297757
 20
869.2150197010656
 30
0.0
 10
3079.25495238641
 20
869.4074764817166
 30
0.0
 10
3079.530177892311
 20
869.5657491166809
 30
0.0
 10
3080.121225556544
 20
869.8017650673833
 30
0.0
 10
3080.437006812924
 20
869.8795194304208
 30
0.0
 10
3081.080453117698
 20
869.9487877402958
 30
0.0
 10
3081.408066361674
 20
869.9402999910605
 30
0.0
 10
3082.04580765978
 20
869.8377021606871
 30
0.0
 10
3082.355885809687
 20
869.7435937716823
 30
0.0
 10
3082.930122230394
 20
869.4767262433529
 30
0.0
 10
3083.194239668312
 20
869.3039490427878
 30
0.0
 10
3083.422321066869
 20
869.0985709361871
 30
0.0
  0
ELLIPSE
  5
583
102
{ACAD_REACTORS
330
50F
102
}
330
1F
100
AcDbEntity
  8
0
100
AcDbEllipse
 10
2406.697966256891
 20
847.4645359548418
 30
0.0
 11
-18.00000000000041
 21
0.000000000000161
 31
-0.0000000000000004
210
0.0
220
0.0000000000000002
230
1.0
 40
0.4436454129495204
 41
0.6582816976452582
 42
1.699297518118321
  0
LINE
  5
584
102
{ACAD_REACTORS
330
50F
102
}
330
1F
100
AcDbEntity
  8
0
100
AcDbLine
 10
2326.474256569064
 20
880.4323754509702
 30
0.0
 11
2392.459163729432
 21
842.5792665964532
 31
0.0
210
0.0
220
0.8962024032375964
230
0.4436454129495272
  0
LINE
  5
585
102
{ACAD_REACTORS
330
555
102
}
330
1F
100
AcDbEntity
  8
0
100
AcDbLine
 10
2916.710359855523
 20
771.3944318196396
 30
0.0
 11
2993.582829549016
 21
702.1738711986205
 31
0.0
210
0.0000000000000002
220
0.531757475619399
230
0.8468966803116448
  0
ELLIPSE
  5
586
102
{ACAD_REACTORS
330
555
102
}
330
1F
100
AcDbEntity
  8
0
100
AcDbEllipse
 10
3006.694751197897
 20
712.6177765664493
 30
0.000000000001093
 11
-18.00000000000057
 21
0.0000000000028149
 31
0.0000000000000019
210
0.0000000000000001
220
0.0
230
1.0
 40
0.8468966803116135
 41
0.7547540154037993
 42
1.710438146892656
  0
LINE
  5
587
330
1F
100
AcDbEntity
  8
0
  6
Continuous
370
    -3
100
AcDbLine
 10
3446.968811424028
 20
47.74709290916746
 30
0.0
 11
3446.968811424028
 21
2467.308432417107
 31
0.0
  0
LINE
  5
588
330
1F
100
AcDbEntity
  8
0
  6
Continuous
370
    -3
100
AcDbLine
 10
25.36691717037218
 20
2467.308432417107
 30
0.0
 11
25.36691717037218
 21
47.74709290916746
 31
0.0
  0
LINE
  5
589
330
1F
100
AcDbEntity
  8
0
  6
Continuous
370
    -3
100
AcDbLine
 10
3446.968811424028
 20
2467.308432417107
 30
0.0
 11
25.36691717037218
 21
2467.308432417107
 31
0.0
  0
LINE
  5
58A
330
1F
100
AcDbEntity
  8
0
  6
Continuous
370
    -3
100
AcDbLine
 10
25.36691717037218
 20
47.74709290916746
 30
0.0
 11
3446.968811424028
 21
47.74709290916746
 31
0.0
  0
LINE
  5
58B
330
1F
100
AcDbEntity
  8
0
370
    -3
100
AcDbLine
 10
25.36691717037218
 20
290.3515833930056
 30
0.0
 11
3446.968811424028
 21
290.3515833930056
 31
0.0
  0
LINE
  5
58C
330
1F
100
AcDbEntity
  8
0
370
    15
100
AcDbLine
 10
2583.18541321841
 20
290.3515833930056
 30
0.0
 11
2583.18541321841
 21
115.8498867858003
 31
0.0
  0
LINE
  5
58D
330
1F
100
AcDbEntity
  8
0
370
    -3
100
AcDbLine
 10
1327.013931206752
 20
290.3515833930056
 30
0.0
 11
1327.013931206752
 21
115.8498867858003
 31
0.0
  0
LINE
  5
58E
330
1F
100
AcDbEntity
  8
0
370
    15
100
AcDbLine
 10
2583.18541321841
 20
290.3515833930056
 30
0.0
 11
2583.18541321841
 21
203.1007350894057
 31
0.0
  0
LINE
  5
58F
330
1F
100
AcDbEntity
  8
0
370
    15
100
AcDbLine
 10
2583.18541321841
 20
203.1007350894057
 30
0.0
 11
2184.739872631971
 21
203.1007350894057
 31
0.0
  0
LINE
  5
590
330
1F
100
AcDbEntity
  8
0
370
    -3
100
AcDbLine
 10
2184.739872631971
 20
290.3515833930056
 30
0.0
 11
2184.739872631971
 21
115.8498867858003
 31
0.0
  0
MTEXT
  5
591
330
1F
100
AcDbEntity
  8
0
370
    15
100
AcDbMText
 10
2209.610380958614
 20
285.7265242553536
 30
0.0
 40
23.26689288095982
 41
156.7171575934999
 71
     1
 72
     5
  1
図面番号
  7
\U+6837式 1
 73
     1
 44
1.0
1001
ACAD
1000
MTEXTBEGIN
1070
    73
1070
     1
1070
    44
1040
1.0
1070
    74
1070
     0
1000
MTEXTEND
  0
MTEXT
  5
592
330
1F
100
AcDbEntity
  8
0
370
    15
100
AcDbMText
 10
2209.610380958614
 20
198.4756759517555
 30
0.0
 40
23.26689288095982
 41
82.6566073180756
 71
     1
 72
     5
  1
尺度
  7
\U+6837式 1
 73
     1
 44
1.0
1001
ACAD
1000
MTEXTBEGIN
1070
    73
1070
     1
1070
    44
1040
1.0
1070
    74
1070
     0
1000
MTEXTEND
  0
MTEXT
  5
593
330
1F
100
AcDbEntity
  8
0
370
    15
100
AcDbMText
 10
2608.05592154504
 20
285.7265242553536
 30
0.0
 40
23.26689288095982
 41
156.7171575934999
 71
     1
 72
     5
  1
図名
  7
\U+6837式 1
 73
     1
 44
1.0
1001
ACAD
1000
MTEXTBEGIN
1070
    73
1070
     1
1070
    44
1040
1.0
1070
    74
1070
     0
1000
MTEXTEND
  0
LINE
  5
594
330
1F
100
AcDbEntity
  8
0
370
    15
100
AcDbLine
 10
25.36691717037218
 20
246.726159241202
 30
0.0
 11
1327.013931206752
 21
246.726159241202
 31
0.0
  0
LINE
  5
595
330
1F
100
AcDbEntity
  8
0
370
    15
100
AcDbLine
 10
1327.013931206752
 20
203.1007350894057
 30
0.0
 11
25.36691717037218
 21
203.1007350894057
 31
0.0
  0
LINE
  5
596
330
1F
100
AcDbEntity
  8
0
370
    15
100
AcDbLine
 10
25.36691717037218
 20
159.4753109376039
 30
0.0
 11
1327.013931206752
 21
159.4753109376039
 31
0.0
  0
LINE
  5
597
330
1F
100
AcDbEntity
  8
0
370
    -3
100
AcDbLine
 10
25.36691717037218
 20
115.8498867858003
 30
0.0
 11
3446.968811424028
 21
115.8498867858003
 31
0.0
  0
MTEXT
  5
598
330
1F
100
AcDbEntity
  8
0
370
    15
100
AcDbMText
 10
2379.757094716716
 20
252.2580692091075
 30
0.0
 40
23.26689288095982
 41
538.4715949516753
 71
     1
 72
     5
  1
2014 Ver,1
  7
\U+6837式 1
 73
     1
 44
1.0
1001
ACAD
1000
MTEXTBEGIN
1070
    73
1070
     1
1070
    44
1040
1.0
1070
    74
1070
     0
1000
MTEXTEND
  0
LINE
  5
599
330
1F
100
AcDbEntity
  8
0
370
    13
100
AcDbLine
 10
91.4877691733135
 20
2252.291640945976
 30
0.0
 11
1069.889483444994
 21
2252.291640945976
 31
0.0
  0
LINE
  5
59A
330
1F
100
AcDbEntity
  8
0
370
    13
100
AcDbLine
 10
91.4877691733135
 20
2233.816455047538
 30
0.0
 11
1069.889483444988
 21
2233.816455047538
 31
0.0
  0
MTEXT
  5
59B
330
1F
100
AcDbEntity
  8
0
370
    13
100
AcDbMText
 10
117.0740042661681
 20
2407.145200921853
 30
0.0
 40
39.29073732332631
 41
1163.10912355125
 71
     1
 72
     5
  1
{\H0.6414x;LINEAR SOUND SOURCE Speaker system\PSOUND POLE Series  Woofer Box\P}SW-4B　{\H0.6109x;（アナログネットワーク内蔵）}
  7
\U+6837式 1
 73
     1
 44
1.0
1001
ACAD
1000
MTEXTBEGIN
1070
    73
1070
     1
1070
    44
1040
1.0
1070
    74
1070
     0
1000
MTEXTEND
  0
MTEXT
  5
59C
330
1F
100
AcDbEntity
  8
0
370
    13
100
AcDbMText
 10
117.0740042661681
 20
2189.004540000472
 30
0.0
 40
24.00121159181014
 41
917.4826399741816
 71
     1
 72
     5
  1
使用ユニット
  7
\U+6837式 1
 73
     1
 44
1.0
1001
ACAD
1000
MTEXTBEGIN
1070
    73
1070
     1
1070
    44
1040
1.0
1070
    74
1070
     0
1000
MTEXTEND
  0
MTEXT
  5
59D
330
1F
100
AcDbEntity
  8
0
370
    13
100
AcDbMText
 10
471.7216204603272
 20
2191.32283884741
 30
0.0
 40
24.00121159181014
 41
917.4826399741816
 71
     1
 72
     5
  1
：　平面波ウーファーユニット 4基実装
  7
\U+6837式 1
 73
     1
 44
1.0
1001
ACAD
1000
MTEXTBEGIN
1070
    73
1070
     1
1070
    44
1040
1.0
1070
    74
1070
     0
1000
MTEXTEND
  0
MTEXT
  5
59E
330
1F
100
AcDbEntity
  8
0
370
    13
100
AcDbMText
 10
117.0740042661681
 20
2118.943946057887
 30
0.0
 40
24.00121159181014
 41
917.4826399741816
 71
     1
 72
     5
  1
インピーダンス
  7
\U+6837式 1
 73
     1
 44
1.0
1001
ACAD
1000
MTEXTBEGIN
1070
    73
1070
     1
1070
    44
1040
1.0
1070
    74
1070
     0
1000
MTEXTEND
  0
MTEXT
  5
59F
330
1F
100
AcDbEntity
  8
0
370
    13
100
AcDbMText
 10
117.0740042661681
 20
2048.883352115304
 30
0.0
 40
24.00121159181014
 41
917.4826399741816
 71
     1
 72
     5
  1
実効波数範囲
  7
\U+6837式 1
 73
     1
 44
1.0
1001
ACAD
1000
MTEXTBEGIN
1070
    73
1070
     1
1070
    44
1040
1.0
1070
    74
1070
     0
1000
MTEXTEND
  0
MTEXT
  5
5A0
330
1F
100
AcDbEntity
  8
0
370
    13
100
AcDbMText
 10
117.0740042661681
 20
1978.822758172719
 30
0.0
 40
24.00121159181014
 41
917.4826399741816
 71
     1
 72
     5
  1
出力音圧レベル
  7
\U+6837式 1
 73
     1
 44
1.0
1001
ACAD
1000
MTEXTBEGIN
1070
    73
1070
     1
1070
    44
1040
1.0
1070
    74
1070
     0
1000
MTEXTEND
  0
MTEXT
  5
5A1
330
1F
100
AcDbEntity
  8
0
370
    13
100
AcDbMText
 10
117.0740042661681
 20
1908.762164230135
 30
0.0
 40
24.00121159181014
 41
917.4826399741816
 71
     1
 72
     5
  1
耐入力
  7
\U+6837式 1
 73
     1
 44
1.0
1001
ACAD
1000
MTEXTBEGIN
1070
    73
1070
     1
1070
    44
1040
1.0
1070
    74
1070
     0
1000
MTEXTEND
  0
MTEXT
  5
5A2
330
1F
100
AcDbEntity
  8
0
370
    13
100
AcDbMText
 10
117.0740042661681
 20
1837.746976644696
 30
0.0
 40
24.00121159181014
 41
917.4826399741816
 71
     1
 72
     5
  1
指向特性
  7
\U+6837式 1
 73
     1
 44
1.0
1001
ACAD
1000
MTEXTBEGIN
1070
    73
1070
     1
1070
    44
1040
1.0
1070
    74
1070
     0
1000
MTEXTEND
  0
MTEXT
  5
5A3
330
1F
100
AcDbEntity
  8
0
370
    13
100
AcDbMText
 10
117.0740042661681
 20
1767.686382702112
 30
0.0
 40
24.00121159181014
 41
917.4826399741816
 71
     1
 72
     5
  1
入出力端子
  7
\U+6837式 1
 73
     1
 44
1.0
1001
ACAD
1000
MTEXTBEGIN
1070
    73
1070
     1
1070
    44
1040
1.0
1070
    74
1070
     0
1000
MTEXTEND
  0
MTEXT
  5
5A4
330
1F
100
AcDbEntity
  8
0
370
    13
100
AcDbMText
 10
117.0740042661681
 20
1697.625788759528
 30
0.0
 40
24.00121159181014
 41
917.4826399741816
 71
     1
 72
     5
  1
キャビネット材質
  7
\U+6837式 1
 73
     1
 44
1.0
1001
ACAD
1000
MTEXTBEGIN
1070
    73
1070
     1
1070
    44
1040
1.0
1070
    74
1070
     0
1000
MTEXTEND
  0
MTEXT
  5
5A5
330
1F
100
AcDbEntity
  8
0
370
    13
100
AcDbMText
 10
471.7216204603272
 20
2119.762169180335
 30
0.0
 40
24.00121159181014
 41
917.4826399741816
 71
     1
 72
     5
  1
：　8Ω
  7
\U+6837式 1
 73
     1
 44
1.0
1001
ACAD
1000
MTEXTBEGIN
1070
    73
1070
     1
1070
    44
1040
1.0
1070
    74
1070
     0
1000
MTEXTEND
  0
MTEXT
  5
5A6
330
1F
100
AcDbEntity
  8
0
370
    13
100
AcDbMText
 10
471.7216204603272
 20
2046.974164829594
 30
0.0
 40
24.00121159181014
 41
917.4826399741816
 71
     1
 72
     5
  1
：　80Hz～220Hz {\H0.6345x;(-10dB)}
  7
\U+6837式 1
 73
     1
 44
1.0
1001
ACAD
1000
MTEXTBEGIN
1070
    73
1070
     1
1070
    44
1040
1.0
1070
    74
1070
     0
1000
MTEXTEND
  0
MTEXT
  5
5A7
330
1F
100
AcDbEntity
  8
0
370
    13
100
AcDbMText
 10
471.7216204603163
 20
1977.049941407415
 30
0.0
 40
24.00121159181014
 41
917.4826399741816
 71
     1
 72
     5
  1
：　93dB {\H0.6345x;(@1w1m)}
  7
\U+6837式 1
 73
     1
 44
1.0
1001
ACAD
1000
MTEXTBEGIN
1070
    73
1070
     1
1070
    44
1040
1.0
1070
    74
1070
     0
1000
MTEXTEND
  0
MTEXT
  5
5A8
330
1F
100
AcDbEntity
  8
0
370
    13
100
AcDbMText
 10
471.7216204603272
 20
1838.019717685511
 30
0.0
 40
24.00121159181014
 41
917.4826399741816
 71
     1
 72
     5
  1
：　オム二
  7
\U+6837式 1
 73
     1
 44
1.0
1001
ACAD
1000
MTEXTBEGIN
1070
    73
1070
     1
1070
    44
1040
1.0
1070
    74
1070
     0
1000
MTEXTEND
  0
MTEXT
  5
5A9
330
1F
100
AcDbEntity
  8
0
370
    13
100
AcDbMText
 10
471.7216204603272
 20
1768.231864783742
 30
0.0
 40
24.00121159181014
 41
917.4826399741816
 71
     1
 72
     5
  1
：　4Pスピコン{\H0.6345x; }×2{\H0.8x;　※1}
  7
\U+6837式 1
 73
     1
 44
1.0
1001
ACAD
1000
MTEXTBEGIN
1070
    73
1070
     1
1070
    44
1040
1.0
1070
    74
1070
     0
1000
MTEXTEND
  0
MTEXT
  5
5AA
330
1F
100
AcDbEntity
  8
0
370
    13
100
AcDbMText
 10
471.7216204603272
 20
1699.125864484013
 30
0.0
 40
24.00121159181014
 41
917.4826399741816
 71
     1
 72
     5
  1
：　MDF
  7
\U+6837式 1
 73
     1
 44
1.0
1001
ACAD
1000
MTEXTBEGIN
1070
    73
1070
     1
1070
    44
1040
1.0
1070
    74
1070
     0
1000
MTEXTEND
  0
MTEXT
  5
5AB
330
1F
100
AcDbEntity
  8
0
370
    13
100
AcDbMText
 10
117.0740042661681
 20
1625.928748572047
 30
0.0
 40
24.00121159181014
 41
917.4826399741816
 71
     1
 72
     5
  1
寸法
  7
\U+6837式 1
 73
     1
 44
1.0
1001
ACAD
1000
MTEXTBEGIN
1070
    73
1070
     1
1070
    44
1040
1.0
1070
    74
1070
     0
1000
MTEXTEND
  0
MTEXT
  5
5AC
330
1F
100
AcDbEntity
  8
0
370
    13
100
AcDbMText
 10
471.7216204603272
 20
1627.974306378168
 30
0.0
 40
24.00121159181014
 41
917.4826399741816
 71
     1
 72
     5
  1
：　W400mm×H474mm×184mm
  7
\U+6837式 1
 73
     1
 44
1.0
1001
ACAD
1000
MTEXTBEGIN
1070
    73
1070
     1
1070
    44
1040
1.0
1070
    74
1070
     0
1000
MTEXTEND
  0
MTEXT
  5
5AD
330
1F
100
AcDbEntity
  8
0
370
    13
100
AcDbMText
 10
117.0740042661681
 20
1553.549855782527
 30
0.0
 40
24.00121159181014
 41
917.4826399741816
 71
     1
 72
     5
  1
カラー
  7
\U+6837式 1
 73
     1
 44
1.0
1001
ACAD
1000
MTEXTBEGIN
1070
    73
1070
     1
1070
    44
1040
1.0
1070
    74
1070
     0
1000
MTEXTEND
  0
MTEXT
  5
5AE
330
1F
100
AcDbEntity
  8
0
370
    13
100
AcDbMText
 10
471.7216204603272
 20
1555.595413588646
 30
0.0
 40
24.00121159181014
 41
917.4826399741816
 71
     1
 72
     5
  1
：　ブラック／ホワイト
  7
\U+6837式 1
 73
     1
 44
1.0
1001
ACAD
1000
MTEXTBEGIN
1070
    73
1070
     1
1070
    44
1040
1.0
1070
    74
1070
     0
1000
MTEXTEND
  0
MTEXT
  5
5AF
330
1F
100
AcDbEntity
  8
0
370
    13
100
AcDbMText
 10
117.0740042661681
 20
1403.114363913617
 30
0.0
 40
15.2296875
 41
917.4826399741816
 71
     1
 72
     5
  1
※1　・・・　入力用コネクター×1　　1±（2±未使用）\P　　　　　　 SP-16-R  SP-8-R  SP-4-R への出力コネクター×1　1±（2±未使用）
  7
\U+6837式 1
 73
     1
 44
1.0
1001
ACAD
1000
MTEXTBEGIN
1070
    73
1070
     1
1070
    44
1040
1.0
1070
    74
1070
     0
1000
MTEXTEND
  0
MTEXT
  5
5B0
330
1F
100
AcDbEntity
  8
0
370
    13
100
AcDbMText
 10
471.7216204603272
 20
1907.398459026052
 30
0.0
 40
24.00121159181014
 41
917.4826399741816
 71
     1
 72
     5
  1
：　120W{\H0.6345x;（定格）}／240W{\H0.6345x;（最大）}
  7
\U+6837式 1
 73
     1
 44
1.0
1001
ACAD
1000
MTEXTBEGIN
1070
    73
1070
     1
1070
    44
1040
1.0
1070
    74
1070
     0
1000
MTEXTEND
  0
MTEXT
  5
5B1
330
1F
100
AcDbEntity
  8
0
370
    13
100
AcDbMText
 10
2630.961003014008
 20
2429.995544375983
 30
0.0
 40
25.26443325453698
 41
965.7711999728231
 71
     1
 72
     5
  1
※この仕様は予告無く変更される場合があります。
  7
\U+6837式 1
 73
     1
 44
1.0
1001
ACAD
1000
MTEXTBEGIN
1070
    73
1070
     1
1070
    44
1040
1.0
1070
    74
1070
     0
1000
MTEXTEND
  0
MTEXT
  5
5B2
330
1F
100
AcDbEntity
  8
0
370
    15
100
AcDbMText
 10
2701.266497796761
 20
245.283787246081
 30
0.0
 40
32.46034026501348
 41
960.911412914633
 71
     1
 72
     5
  1
SOUND POLE Series\PWoofer Box  SW-4B   仕様図面
  7
\U+6837式 1
 73
     1
 44
1.0
1001
ACAD
1000
MTEXTBEGIN
1070
    73
1070
     1
1070
    44
1040
1.0
1070
    74
1070
     0
1000
MTEXTEND
  0
MTEXT
  5
5B3
330
1F
100
AcDbEntity
  8
0
370
    15
100
AcDbMText
 10
2430.479889072948
 20
155.8799860494406
 30
0.0
 40
23.26689288095982
 41
179.5520983890407
 71
     1
 72
     5
  1
単位（mm）
  7
\U+6837式 1
 73
     1
 44
1.0
1001
ACAD
1000
MTEXTBEGIN
1070
    73
1070
     1
1070
    44
1040
1.0
1070
    74
1070
     0
1000
MTEXTEND
  0
MTEXT
  5
5B4
330
1F
100
AcDbEntity
  8
0
370
    13
100
AcDbMText
 10
117.0740042661681
 20
1333.871993093483
 30
0.0
 40
15.2296875
 41
917.4826399741816
 71
     1
 72
     5
  1
※　・・・　SPケーブルは製品に含まれません。
  7
\U+6837式 1
 73
     1
 44
1.0
1001
ACAD
1000
MTEXTBEGIN
1070
    73
1070
     1
1070
    44
1040
1.0
1070
    74
1070
     0
1000
MTEXTEND
  0
MTEXT
  5
5B5
330
1F
100
AcDbEntity
  8
0
370
    13
100
AcDbMText
 10
117.0740042661681
 20
1481.989186115452
 30
0.0
 40
24.00121159181014
 41
917.4826399741816
 71
     1
 72
     5
  1
オプション
  7
\U+6837式 1
 73
     1
 44
1.0
1001
ACAD
1000
MTEXTBEGIN
1070
    73
1070
     1
1070
    44
1040
1.0
1070
    74
1070
     0
1000
MTEXTEND
  0
MTEXT
  5
5B6
330
1F
100
AcDbEntity
  8
0
370
    13
100
AcDbMText
 10
471.7216204603272
 20
1484.034743921571
 30
0.0
 40
24.00121159181014
 41
917.4826399741816
 71
     1
 72
     5
  1
：　壁面固定金具「SPW-WSM」
  7
\U+6837式 1
 73
     1
 44
1.0
1001
ACAD
1000
MTEXTBEGIN
1070
    73
1070
     1
1070
    44
1040
1.0
1070
    74
1070
     0
1000
MTEXTEND
  0
MTEXT
  5
5B7
330
1F
100
AcDbEntity
  8
0
100
AcDbMText
 10
199.6609372633874
 20
1240.884071931105
 30
0.0
 40
22.501135867322
 41
860.1399749757952
 71
     1
 72
     5
  1
SP-16-R + SW-4B  1対向システム　接続概要
  7
\U+6837式 1
 73
     1
 44
1.0
1001
ACAD
1000
MTEXTBEGIN
1070
    73
1070
     1
1070
    44
1040
1.0
1070
    74
1070
     0
1000
MTEXTEND
  0
LINE
  5
5B8
330
1F
100
AcDbEntity
  8
0
100
AcDbLine
 10
184.0315241059551
 20
1188.1361383181
 30
0.0
 11
858.3920290957692
 21
1188.136138318107
 31
0.0
  0
LINE
  5
5B9
330
1F
100
AcDbEntity
  8
0
100
AcDbLine
 10
184.0315241059551
 20
1196.492960084077
 30
0.0
 11
858.3920290957657
 21
1196.492960084077
 31
0.0
  0
LWPOLYLINE
  5
5BA
330
1F
100
AcDbEntity
  8
0
100
AcDbPolyline
 90
        4
 70
     1
 43
0.0
 10
428.1091195921952
 20
961.086951556296
 10
564.6735851404636
 20
961.086951556296
 10
564.6735851404636
 20
891.1044300091512
 10
428.1091195921952
 20
891.1044300091512
  0
LINE
  5
5BB
330
1F
100
AcDbEntity
  8
0
100
AcDbLine
 10
428.1091195921952
 20
961.086951556296
 30
0.0
 11
564.6735851404636
 21
926.0956907827226
 31
0.0
  0
LINE
  5
5BC
330
1F
100
AcDbEntity
  8
0
100
AcDbLine
 10
564.6735851404636
 20
926.0956907827226
 30
0.0
 11
428.1091195921952
 21
891.1044300091512
 31
0.0
  0
LWPOLYLINE
  5
5BD
330
1F
100
AcDbEntity
  8
0
100
AcDbPolyline
 90
        4
 70
     1
 43
0.0
 10
428.1091195921952
 20
849.6990473307656
 10
564.6735851404636
 20
849.6990473307656
 10
564.6735851404636
 20
779.7165257836228
 10
428.1091195921952
 20
779.7165257836228
  0
LINE
  5
5BE
330
1F
100
AcDbEntity
  8
0
100
AcDbLine
 10
428.1091195921952
 20
849.6990473307656
 30
0.0
 11
564.6735851404636
 21
814.7077865571942
 31
0.0
  0
LINE
  5
5BF
330
1F
100
AcDbEntity
  8
0
100
AcDbLine
 10
564.6735851404636
 20
814.7077865571942
 30
0.0
 11
428.1091195921952
 21
779.7165257836228
 31
0.0
  0
MTEXT
  5
5C0
330
1F
100
AcDbEntity
  8
0
100
AcDbMText
 10
435.7075787952607
 20
936.6390396252306
 30
0.0
 40
22.501135867322
 41
109.5353631775911
 71
     1
 72
     5
  1
120W
  7
\U+6837式 1
 73
     1
 44
1.0
1001
ACAD
1000
MTEXTBEGIN
1070
    73
1070
     1
1070
    44
1040
1.0
1070
    74
1070
     0
1000
MTEXTEND
  0
MTEXT
  5
5C1
330
1F
100
AcDbEntity
  8
0
100
AcDbMText
 10
435.7075787952607
 20
825.251135399702
 30
0.0
 40
22.501135867322
 41
109.5353631775911
 71
     1
 72
     5
  1
120W
  7
\U+6837式 1
 73
     1
 44
1.0
1001
ACAD
1000
MTEXTBEGIN
1070
    73
1070
     1
1070
    44
1040
1.0
1070
    74
1070
     0
1000
MTEXTEND
  0
LINE
  5
5C2
330
1F
100
AcDbEntity
  8
0
100
AcDbLine
 10
564.6735851404636
 20
926.0956907827226
 30
0.0
 11
963.6418610266
 21
926.0956907827226
 31
0.0
  0
ARC
  5
5C3
330
1F
100
AcDbEntity
  8
0
100
AcDbCircle
 10
963.6418610266
 20
911.0956907827228
 30
0.0
 40
15.0
100
AcDbArc
 50
0.0
 51
90.0
  0
ELLIPSE
  5
5C4
330
1F
100
AcDbEntity
  8
0
  6
Continuous
100
AcDbEllipse
 10
1411.706765727252
 20
1155.828228931565
 30
-0.0000000000002931
 11
-9.301132337722387
 21
4.972475188656028
 31
0.0000000000000012
210
0.0000000000000002
220
0.0000000000000001
230
1.0
 40
0.2898359481293595
 41
0.8490534587051316
 42
3.141592653589781
  0
ELLIPSE
  5
5C5
330
1F
100
AcDbEntity
  8
0
  6
Continuous
100
AcDbEllipse
 10
1411.706765727252
 20
1155.828228931565
 30
-0.0000000000002931
 11
-9.301132337678335
 21
4.972475188648735
 31
-0.0000000000000005
210
0.0000000000000001
220
0.0000000000000002
230
1.0
 40
0.2898359481302152
 41
0.0000000000046907
 42
1.950083942920172
  0
ELLIPSE
  5
5C6
330
1F
100
AcDbEntity
  8
0
  6
Continuous
100
AcDbEllipse
 10
1411.759643931264
 20
1155.927138861656
 30
0.0000000000001599
 11
-9.301132337722387
 21
4.972475188656028
 31
0.0000000000000012
210
0.0000000000000002
220
0.0000000000000001
230
1.0
 40
0.2898359481293595
 41
6.256734657224523
 42
7.132238765884717
  0
ELLIPSE
  5
5C7
330
1F
100
AcDbEntity
  8
0
  6
Continuous
100
AcDbEllipse
 10
1411.759643931264
 20
1155.927138861656
 30
0.0000000000001599
 11
-9.301132337722387
 21
4.972475188656028
 31
0.0000000000000012
210
0.0000000000000002
220
0.0000000000000001
230
1.0
 40
0.2898359481293595
 41
0.8490534587051316
 42
3.168043303544889
  0
ELLIPSE
  5
5C8
330
1F
100
AcDbEntity
  8
0
  6
Continuous
100
AcDbEllipse
 10
1411.759643931264
 20
1155.927138861656
 30
0.0000000000001599
 11
9.301132337722387
 21
-4.972475188656028
 31
-0.0000000000000012
210
0.0000000000000002
220
0.0000000000000001
230
1.0
 40
0.2898359481293595
 41
3.990646112294924
 42
6.309635957134682
  0
ELLIPSE
  5
5C9
330
1F
100
AcDbEntity
  8
0
  6
Continuous
100
AcDbEllipse
 10
1411.759643931264
 20
1155.927138861656
 30
0.0000000000001599
 11
9.301132337722387
 21
-4.972475188656028
 31
-0.0000000000000012
210
0.0000000000000002
220
0.0000000000000001
230
1.0
 40
0.2898359481293595
 41
3.11514200363473
 42
3.990646112294924
  0
ELLIPSE
  5
5CA
330
1F
100
AcDbEntity
  8
0
  6
Continuous
100
AcDbEllipse
 10
1411.706765727252
 20
1155.828228931565
 30
-0.0000000000002931
 11
-9.301132337722387
 21
4.972475188656028
 31
0.0000000000000012
210
0.0000000000000002
220
0.0000000000000001
230
1.0
 40
0.2898359481293595
 41
-0.0000000000000116
 42
0.8490534587051316
  0
ELLIPSE
  5
5CB
330
1F
100
AcDbEntity
  8
0
  6
Continuous
100
AcDbEllipse
 10
1218.119660842059
 20
793.7189748680163
 30
0.0
 11
-9.301132337722387
 21
4.972475188656028
 31
0.0000000000000012
210
0.0000000000000002
220
0.0000000000000001
230
1.0
 40
0.2898359481293595
 41
-0.0000000000000116
 42
0.8490534587051316
  0
ELLIPSE
  5
5CC
330
1F
100
AcDbEntity
  8
0
  6
Continuous
100
AcDbEllipse
 10
1218.119660842059
 20
793.7189748680163
 30
0.0
 11
-9.301132337722387
 21
4.972475188656028
 31
0.0000000000000012
210
0.0000000000000002
220
0.0000000000000001
230
1.0
 40
0.2898359481293595
 41
0.8490534587051316
 42
3.141592653589781
  0
ELLIPSE
  5
5CD
330
1F
100
AcDbEntity
  8
0
  6
Continuous
100
AcDbEllipse
 10
1218.119660842059
 20
793.7189748680163
 30
0.0
 11
9.301132337722387
 21
-4.972475188656028
 31
-0.0000000000000012
210
0.0000000000000002
220
0.0000000000000001
230
1.0
 40
0.2898359481293595
 41
3.990646112294924
 42
6.283185307179574
  0
ELLIPSE
  5
5CE
330
1F
100
AcDbEntity
  8
0
  6
Continuous
100
AcDbEllipse
 10
1218.119660842059
 20
793.7189748680163
 30
0.0
 11
9.301132337722387
 21
-4.972475188656028
 31
-0.0000000000000012
210
0.0000000000000002
220
0.0000000000000001
230
1.0
 40
0.2898359481293595
 41
3.141592653589781
 42
3.990646112294924
  0
ELLIPSE
  5
5CF
330
1F
100
AcDbEntity
  8
0
  6
Continuous
100
AcDbEllipse
 10
1218.172539046068
 20
793.8178847981058
 30
0.0000000000004796
 11
-9.301132337722387
 21
4.972475188656028
 31
0.0000000000000012
210
0.0000000000000002
220
0.0000000000000001
230
1.0
 40
0.2898359481293595
 41
-0.0000000000000116
 42
0.8490534587051316
  0
ELLIPSE
  5
5D0
330
1F
100
AcDbEntity
  8
0
  6
Continuous
100
AcDbEllipse
 10
1218.172539046068
 20
793.8178847981058
 30
0.0000000000004796
 11
-9.301132337722387
 21
4.972475188656028
 31
0.0000000000000012
210
0.0000000000000002
220
0.0000000000000001
230
1.0
 40
0.2898359481293595
 41
0.8490534587051316
 42
3.141592653589781
  0
ELLIPSE
  5
5D1
330
1F
100
AcDbEntity
  8
0
  6
Continuous
100
AcDbEllipse
 10
1315.468434426745
 20
975.8121561657505
 30
0.0000000000006928
 11
9.507824167412337
 21
-5.082974637272932
 31
-0.000000000000001
210
0.0000000000000002
220
0.0000000000000002
230
1.0
 40
0.2898359481293596
 41
2.934580654328779
 42
5.046711570261047
  0
ELLIPSE
  5
5D2
330
1F
100
AcDbEntity
  8
0
  6
Continuous
100
AcDbEllipse
 10
1314.410870346522
 20
973.833957563928
 30
0.0000000000004263
 11
-9.507824167412337
 21
5.082974637272932
 31
0.000000000000001
210
0.0000000000000002
220
0.0000000000000002
230
1.0
 40
0.2898359481293596
 41
-0.0000000000000455
 42
1.905118916671273
  0
SPLINE
  5
5D3
330
1F
100
AcDbEntity
  8
0
  6
Continuous
100
AcDbSpline
210
-0.0000000000009843
220
0.0000000000031483
230
1.0
 70
     8
 71
     3
 72
    22
 73
    18
 74
     0
 42
0.0000000001
 43
0.0000000001
 40
6.030662373476993
 40
6.030662373476993
 40
6.030662373476993
 40
6.030662373476993
 40
6.407353829202204
 40
6.407353829202204
 40
6.784045284927413
 40
6.784045284927413
 40
7.160736740652624
 40
7.160736740652624
 40
7.537428196377835
 40
7.537428196377835
 40
7.91426419263626
 40
7.91426419263626
 40
8.291100188894686
 40
8.291100188894686
 40
8.667936185153113
 40
8.667936185153113
 40
9.044772181411538
 40
9.044772181411538
 40
9.044772181411538
 40
9.044772181411538
 10
1316.57660998494
 20
969.6021637286545
 30
0.0000000000005329
 10
1316.747119240707
 20
969.7683420832042
 30
0.0000000000003197
 10
1316.730936507935
 20
969.7436226461546
 30
-0.0000000000005862
 10
1316.693295245962
 20
969.6966078250794
 30
0.0000000000002132
 10
1316.671838655745
 20
969.6743112388528
 30
0.0000000000005329
 10
1316.624954782962
 20
969.6338313567363
 30
-0.0000000000004263
 10
1316.599489982226
 20
969.6156161832011
 30
0.0000000000009592
 10
1316.546389151043
 20
969.584347964045
 30
0.0000000000005329
 10
1316.518751640641
 20
969.5712974354544
 30
-0.0000000000002132
 10
1316.463646131514
 20
969.5506985109719
 30
0.0000000000005329
 10
1316.434296464352
 20
969.5424483805915
 30
0.0000000000001599
 10
1316.374009516185
 20
969.5314095976943
 30
-0.0000000000005862
 10
1316.343072301529
 20
969.5286191346736
 30
0.0000000000005329
 10
1316.281725810772
 20
969.5289338593889
 30
0.0000000000003197
 10
1316.251267337287
 20
969.5320396332359
 30
0.0000000000009059
 10
1316.192829975925
 20
969.5437258712651
 30
-0.0000000000002665
 10
1316.164851722035
 20
969.5523087210682
 30
0.0000000000005862
 10
1316.139006200784
 20
969.5629511035392
 30
0.0000000000001599
  0
LINE
  5
5D4
330
1F
100
AcDbEntity
  8
0
  6
Continuous
100
AcDbLine
 10
1317.394936867274
 20
970.9801002613318
 30
0.0000000000007461
 11
1316.760398419138
 21
969.7931811002387
 31
-0.0000000000002665
210
0.4512273408960194
220
0.8440314034441271
230
0.2898359481293593
  0
SPLINE
  5
5D5
330
1F
100
AcDbEntity
  8
0
  6
Continuous
100
AcDbSpline
210
0.000000000001306
220
0.0000000000007273
230
1.0
 70
     8
 71
     3
 72
    22
 73
    18
 74
     0
 42
0.0000000001
 43
0.0000000001
 40
9.047215022640344
 40
9.047215022640344
 40
9.047215022640344
 40
9.047215022640344
 40
9.424051018898769
 40
9.424051018898769
 40
9.800887015157195
 40
9.800887015157195
 40
10.17772301141562
 40
10.17772301141562
 40
10.55455900767404
 40
10.55455900767404
 40
10.93125046339926
 40
10.93125046339926
 40
11.30794191912446
 40
11.30794191912446
 40
11.68463337484968
 40
11.68463337484968
 40
12.06132483057489
 40
12.06132483057489
 40
12.06132483057489
 40
12.06132483057489
 10
1317.196570281009
 20
971.5411497053615
 30
0.0000000000001599
 10
1317.222415802261
 20
971.5305073228888
 30
0.0000000000006395
 10
1317.247855508426
 20
971.5171760595845
 30
-0.0000000000000533
 10
1317.295593789063
 20
971.4854769382442
 30
0.0000000000000533
 10
1317.317893954331
 20
971.4671108560985
 30
0.0000000000003197
 10
1317.357658293659
 20
971.4264262071615
 30
0.0000000000001599
 10
1317.375154394224
 20
971.4040747486693
 30
0.0000000000001599
 10
1317.404373701506
 20
971.3570007751775
 30
-0.0000000000001066
 10
1317.416094911151
 20
971.33227645922
 30
0.0000000000008527
 10
1317.433635549046
 20
971.2826094044181
 30
0.0000000000006395
 10
1317.440055667849
 20
971.2559723006675
 30
0.0000000000006928
 10
1317.446954370937
 20
971.2008183474905
 30
0.000000000000373
 10
1317.447435739522
 20
971.1723014208352
 30
0.0
 10
1317.442207122702
 20
971.1153036597613
 30
0.0000000000004263
 10
1317.436493150083
 20
971.0867770661668
 30
-0.0000000000000533
 10
1317.419498805212
 20
971.0315946936177
 30
0.0000000000004796
 10
1317.408216045705
 20
971.0049392783663
 30
0.0000000000001066
 10
1317.394936867274
 20
970.9801002613318
 30
0.0000000000007461
  0
SPLINE
  5
5D6
330
1F
100
AcDbEntity
  8
0
  6
Continuous
100
AcDbSpline
210
0.0000000084814308
220
-0.0000000193045324
230
0.9999999999999998
 70
     8
 71
     3
 72
     8
 73
     4
 74
     0
 42
0.0000000001
 43
0.0000000001
 40
8.958811048616279
 40
8.958811048616279
 40
8.958811048616279
 40
8.958811048616279
 40
9.044772181411536
 40
9.044772181411536
 40
9.044772181411536
 40
9.044772181411536
 10
1306.472617888497
 20
981.3557312290255
 30
0.0000000000000533
 10
1306.470596800432
 20
981.3549449519001
 30
0.0000000000009059
 10
1306.468525598172
 20
981.3540346558516
 30
0.0000000000004796
 10
1306.466410218964
 20
981.3530055292636
 30
0.0000000000001066
  0
SPLINE
  5
5D7
330
1F
100
AcDbEntity
  8
0
  6
Continuous
100
AcDbSpline
210
-0.00000000003357
220
-0.0000000000363984
230
1.0
 70
     8
 71
     3
 72
    14
 73
    10
 74
     0
 42
0.0000000001
 43
0.0000000001
 40
13.76145653033968
 40
13.76145653033968
 40
13.76145653033968
 40
13.76145653033968
 40
13.94526565719785
 40
13.94526565719785
 40
14.32210836953989
 40
14.32210836953989
 40
14.69895108188192
 40
14.69895108188192
 40
15.07579379422396
 40
15.07579379422396
 40
15.07579379422396
 40
15.07579379422396
 10
1317.362588616631
 20
971.441830446755
 30
0.0000000000002665
 10
1317.356843137283
 20
971.4537530799104
 30
0.0
 10
1317.350403286084
 20
971.4655180156993
 30
0.0000000000005862
 10
1317.328664059038
 20
971.5005424267188
 30
0.0000000000006395
 10
1317.311164973685
 20
971.5228996938099
 30
-0.0000000000003197
 10
1317.271393531694
 20
971.5635984643927
 30
0.0000000000002665
 10
1317.249089235161
 20
971.5819728847824
 30
0.0000000000007994
 10
1317.201341889312
 20
971.6136910410538
 30
0.0000000000005862
 10
1317.175897250142
 20
971.6270330064878
 30
0.0000000000004796
 10
1317.150046716425
 20
971.6376868531812
 30
0.000000000000373
  0
ELLIPSE
  5
5D8
330
1F
100
AcDbEntity
  8
0
  6
Continuous
100
AcDbEllipse
 10
1315.468434426745
 20
975.8121561657505
 30
0.0000000000006928
 11
9.301132337685174
 21
-4.972475188636133
 31
-0.0000000000000026
210
0.0000000000000003
220
0.0
230
1.0
 40
0.2898359481293596
 41
3.141592653586791
 42
5.045744451669375
  0
ELLIPSE
  5
5D9
330
1F
100
AcDbEntity
  8
0
  6
Continuous
100
AcDbEllipse
 10
1218.172539046068
 20
793.8178847981058
 30
0.0000000000004796
 11
-9.301132337685185
 21
4.972475188636139
 31
-0.0000000000000005
210
0.0000000000000001
220
0.0000000000000002
230
1.0
 40
0.2898359481293597
 41
-0.0000000000000224
 42
1.942478296348357
  0
ELLIPSE
  5
5DA
330
1F
100
AcDbEntity
  8
0
  6
Continuous
100
AcDbEllipse
 10
1220.185145633023
 20
789.5482126717494
 30
-0.0000000000002665
 11
0.1033459148635821
 21
-0.0552497243184003
 31
0.0
210
0.0000000000000001
220
0.0000000000000002
230
1.0
 40
0.2898359481293595
 41
5.084070949947543
 42
6.283185307168933
  0
LINE
  5
5DB
330
1F
100
AcDbEntity
  8
0
  6
Continuous
100
AcDbLine
 10
1317.446253727702
 20
971.1664209632369
 30
0.0000000000011724
 11
1413.839386014911
 21
1151.472052632617
 31
0.0000000000003464
210
0.4512273408960194
220
0.8440314034441271
230
0.2898359481293593
  0
ELLIPSE
  5
5DC
330
1F
100
AcDbEntity
  8
0
  6
Continuous
100
AcDbEllipse
 10
1411.706765727252
 20
1155.828228931565
 30
-0.0000000000002931
 11
9.301132337685185
 21
-4.972475188636139
 31
0.0000000000000005
210
0.0000000000000001
220
0.0000000000000002
230
1.0
 40
0.2898359481293597
 41
5.094682744765916
 42
6.283185307179564
  0
LINE
  5
5DD
330
1F
100
AcDbEntity
  8
0
  6
Continuous
100
AcDbLine
 10
1220.30515933373
 20
789.4617084991574
 30
0.0000000000011191
 11
1220.291120605831
 21
789.4978806624354
 31
0.0000000000001599
210
0.4512273408960194
220
0.8440314034441271
230
0.2898359481293593
  0
ELLIPSE
  5
5DE
330
1F
100
AcDbEntity
  8
0
  6
Continuous
100
AcDbEllipse
 10
1218.172539046068
 20
793.8178847981058
 30
0.0000000000004796
 11
-9.301132337685185
 21
4.972475188636139
 31
-0.0000000000000005
210
0.0000000000000001
220
0.0000000000000002
230
1.0
 40
0.2898359481293597
 41
1.953090091176069
 42
3.14159265358977
  0
LINE
  5
5DF
330
1F
100
AcDbEntity
  8
0
  6
Continuous
100
AcDbLine
 10
1314.090724078815
 20
950.8646533973848
 30
-0.0000000000002665
 11
1316.132581486866
 21
950.5081950613773
 31
0.000000000000373
210
0.4512273408960194
220
0.8440314034441271
230
0.2898359481293593
  0
LINE
  5
5E0
330
1F
100
AcDbEntity
  8
0
  6
Continuous
100
AcDbLine
 10
1316.132581486866
 20
950.5081950613773
 30
0.000000000000373
 11
1337.283863091367
 21
990.0721670978207
 31
0.0000000000007461
210
0.4512273408960194
220
0.8440314034441271
230
0.2898359481293593
  0
LINE
  5
5E1
330
1F
100
AcDbEntity
  8
0
  6
Continuous
100
AcDbLine
 10
1337.283863091367
 20
990.0721670978207
 30
0.0000000000007461
 11
1335.784441983967
 21
991.4432653517184
 31
0.0000000000004796
210
0.4512273408960194
220
0.8440314034441271
230
0.2898359481293593
  0
LINE
  5
5E2
330
1F
100
AcDbEntity
  8
0
  6
Continuous
100
AcDbLine
 10
1335.242005683317
 20
990.42862543383
 30
0.0000000000001599
 11
1337.283863091367
 21
990.0721670978207
 31
0.0000000000007461
210
0.4512273408960194
220
0.8440314034441271
230
0.2898359481293593
  0
ELLIPSE
  5
5E3
330
1F
100
AcDbEntity
  8
0
  6
Continuous
100
AcDbEllipse
 10
1318.019984422465
 20
956.9645755004172
 30
-0.0000000000009592
 11
0.3163230629171022
 21
0.3459281462482389
 31
-0.0000000000000001
210
0.0000000000000001
220
0.0000000000000002
230
1.0
 40
0.6323345656966988
 41
5.095846263283
 42
5.118025263186115
  0
ELLIPSE
  5
5E4
330
1F
100
AcDbEntity
  8
0
  6
Continuous
100
AcDbEllipse
 10
1318.019984422465
 20
956.9645755004172
 30
-0.0000000000009592
 11
0.3163230629171022
 21
0.3459281462482389
 31
-0.0000000000000001
210
0.0000000000000001
220
0.0000000000000002
230
1.0
 40
0.6323345656966988
 41
4.306752697583857
 42
5.095846263283
  0
ELLIPSE
  5
5E5
330
1F
100
AcDbEntity
  8
0
  6
Continuous
100
AcDbEllipse
 10
1318.421967849376
 20
956.5969944572977
 30
0.0
 11
-0.3163230629171022
 21
-0.3459281462482389
 31
0.0000000000000001
210
0.0000000000000001
220
0.0000000000000002
230
1.0
 40
0.6323345656966988
 41
0.0
 42
6.283185307179586
  0
ELLIPSE
  5
5E6
330
1F
100
AcDbEntity
  8
0
  6
Continuous
100
AcDbEllipse
 10
1332.825881545616
 20
984.6593559259277
 30
-0.0000000000006395
 11
0.3163230629171022
 21
0.3459281462482389
 31
-0.0000000000000001
210
0.0000000000000001
220
0.0000000000000002
230
1.0
 40
0.6323345656966988
 41
5.095846263282963
 42
5.118025263185661
  0
ELLIPSE
  5
5E7
330
1F
100
AcDbEntity
  8
0
  6
Continuous
100
AcDbEllipse
 10
1332.825881545616
 20
984.6593559259277
 30
-0.0000000000006395
 11
0.3163230629171022
 21
0.3459281462482389
 31
-0.0000000000000001
210
0.0000000000000001
220
0.0000000000000002
230
1.0
 40
0.6323345656966988
 41
4.306752697583537
 42
5.095846263282963
  0
ELLIPSE
  5
5E8
330
1F
100
AcDbEntity
  8
0
  6
Continuous
100
AcDbEllipse
 10
1333.227864972526
 20
984.2917748828082
 30
0.0000000000002132
 11
-0.3163230629171022
 21
-0.3459281462482389
 31
0.0000000000000001
210
0.0000000000000001
220
0.0000000000000002
230
1.0
 40
0.6323345656966988
 41
0.0
 42
6.283185307179586
  0
LINE
  5
5E9
330
1F
100
AcDbEntity
  8
0
  6
Continuous
100
AcDbLine
 10
1413.811818047891
 20
1151.482918034424
 30
-0.0000000000000266
 11
1317.44396401102
 21
971.2245699296223
 31
0.000000000000373
210
0.4512273408960194
220
0.8440314034441271
230
0.2898359481293593
  0
LINE
  5
5EA
330
1F
100
AcDbEntity
  8
0
  6
Continuous
100
AcDbLine
 10
1402.405633389567
 20
1160.8007041202
 30
-0.0000000000005063
 11
1306.167302089089
 21
980.7846313543819
 31
0.0000000000001066
210
0.4512273408960194
220
0.8440314034441271
230
0.2898359481293593
  0
LINE
  5
5EB
330
1F
100
AcDbEntity
  8
0
  6
Continuous
100
AcDbLine
 10
1403.790976142855
 20
1162.93131499934
 30
0.0000000000004263
 11
1402.499881397733
 21
1160.969172102343
 31
0.0000000000006661
210
0.4512273408960194
220
0.8440314034441271
230
0.2898359481293593
  0
LINE
  5
5EC
330
1F
100
AcDbEntity
  8
0
  6
Continuous
100
AcDbLine
 10
1422.010138993416
 20
1153.191174558044
 30
0.0000000000002132
 11
1421.095639037335
 21
1151.027700449246
 31
-0.0000000000006661
210
0.4512273408960194
220
0.8440314034441271
230
0.2898359481293593
  0
SPLINE
  5
5ED
330
1F
100
AcDbEntity
  8
0
  6
Continuous
100
AcDbSpline
210
-0.0000000000000342
220
-0.0000000000000297
230
1.0
 70
     8
 71
     3
 72
    28
 73
    24
 74
     0
 42
0.0000000001
 43
0.0000000001
 40
0.7481935180447329
 40
0.7481935180447329
 40
0.7481935180447329
 40
0.7481935180447329
 40
0.9022574624253586
 40
0.9022574624253586
 40
1.117195843484027
 40
1.117195843484027
 40
1.496203935396554
 40
1.496203935396554
 40
1.852408053103022
 40
1.852408053103022
 40
2.18847970126394
 40
2.18847970126394
 40
2.519542639625475
 40
2.519542639625475
 40
2.851594403993391
 40
2.851594403993391
 40
3.191818071467561
 40
3.191818071467561
 40
3.559993155533702
 40
3.559993155533702
 40
3.698439013629139
 40
3.698439013629139
 40
3.836884871724575
 40
3.836884871724575
 40
3.836884871724575
 40
3.836884871724575
 10
1422.010138993416
 20
1153.191174558044
 30
0.0000000000000799
 10
1422.143690251322
 20
1153.507122838593
 30
0.0000000000009859
 10
1422.185035587153
 20
1153.846479364984
 30
0.0000000000001332
 10
1422.131982025002
 20
1154.592451182733
 30
0.0000000000001066
 10
1421.993005769344
 20
1154.981128592848
 30
0.0000000000008793
 10
1421.466076616515
 20
1156.010930851844
 30
0.0000000000002398
 10
1420.952731728696
 20
1156.638757057219
 30
-0.0000000000001332
 10
1419.675439593938
 20
1157.899707118984
 30
-0.0000000000000799
 10
1418.925554314031
 20
1158.521876822404
 30
0.0000000000002931
 10
1417.285039500056
 20
1159.709497760516
 30
-0.0000000000001599
 10
1416.405422182047
 20
1160.27500151297
 30
0.000000000000373
 10
1414.580387154298
 20
1161.322883009718
 30
0.0000000000007461
 10
1413.636657601421
 20
1161.806027530962
 30
0.0000000000003464
 10
1411.761731474848
 20
1162.652561020472
 30
0.0000000000002931
 10
1410.831233874348
 20
1163.015439864972
 30
0.0000000000003464
 10
1409.049158210887
 20
1163.589370973072
 30
0.0000000000001865
 10
1408.201758339298
 20
1163.797017365632
 30
0.0000000000001599
 10
1406.601618759333
 20
1164.02453844724
 30
-0.000000000000453
 10
1405.866713405942
 20
1164.042576804681
 30
0.000000000000373
 10
1404.9223074059
 20
1163.795346931533
 30
0.0000000000001066
 10
1404.66861469297
 20
1163.696734591955
 30
0.0000000000000266
 10
1404.187532856979
 20
1163.396020997882
 30
0.000000000000453
 10
1403.960410454411
 20
1163.188813011923
 30
-0.0000000000006128
 10
1403.790976142855
 20
1162.931314999338
 30
-0.0000000000003197
  0
LINE
  5
5EE
330
1F
100
AcDbEntity
  8
0
  6
Continuous
100
AcDbLine
 10
1421.007898064977
 20
1150.855753742908
 30
-0.0000000000000799
 11
1421.060776268986
 21
1150.954663672998
 31
-0.0000000000000533
210
0.4512273408960194
220
0.8440314034441271
230
0.2898359481293593
  0
LINE
  5
5EF
330
1F
100
AcDbEntity
  8
0
  6
Continuous
100
AcDbLine
 10
1402.40563338953
 20
1160.800704120222
 30
-0.0000000000002931
 11
1402.45851159354
 21
1160.899614050312
 31
-0.0000000000000533
210
0.4512273408960194
220
0.8440314034441271
230
0.2898359481293593
  0
LINE
  5
5F0
330
1F
100
AcDbEntity
  8
0
  6
Continuous
100
AcDbLine
 10
1226.088328630472
 20
786.7147987303312
 30
0.0000000000002132
 11
1227.379423375591
 21
788.6769416273261
 31
0.0000000000004263
210
0.4512273408960194
220
0.8440314034441271
230
0.2898359481293593
  0
LINE
  5
5F1
330
1F
100
AcDbEntity
  8
0
  6
Continuous
100
AcDbLine
 10
1207.869165779911
 20
796.4549391716269
 30
0.0000000000005329
 11
1208.783665735988
 21
798.6184132804234
 31
0.0000000000000533
210
0.4512273408960194
220
0.8440314034441271
230
0.2898359481293593
  0
SPLINE
  5
5F2
330
1F
100
AcDbEntity
  8
0
  6
Continuous
100
AcDbSpline
210
0.0000000000000321
220
0.0000000000000547
230
1.0
 70
     8
 71
     3
 72
    28
 73
    24
 74
     0
 42
0.0000000001
 43
0.0000000001
 40
3.889786171634597
 40
3.889786171634597
 40
3.889786171634597
 40
3.889786171634597
 40
4.043850116015229
 40
4.043850116015229
 40
4.258788497073952
 40
4.258788497073952
 40
4.637796588986527
 40
4.637796588986527
 40
4.994000706692978
 40
4.994000706692978
 40
5.330072354853891
 40
5.330072354853891
 40
5.661135293215425
 40
5.661135293215425
 40
5.993187057583343
 40
5.993187057583343
 40
6.333410725057519
 40
6.333410725057519
 40
6.701585809123682
 40
6.701585809123682
 40
6.840031667219017
 40
6.840031667219017
 40
6.978477525314352
 40
6.978477525314352
 40
6.978477525314352
 40
6.978477525314352
 10
1207.869165779911
 20
796.4549391716269
 30
0.0000000000005329
 10
1207.735614522005
 20
796.1389908910756
 30
0.0000000000009059
 10
1207.694269186174
 20
795.7996343646851
 30
-0.0000000000001599
 10
1207.747322748321
 20
795.0536625469363
 30
0.0000000000000533
 10
1207.886299003982
 20
794.6649851368207
 30
-0.0000000000002665
 10
1208.413228156812
 20
793.635182877823
 30
0.0000000000004796
 10
1208.926573044628
 20
793.0073566724501
 30
0.0000000000005329
 10
1210.203865179393
 20
791.7464066106828
 30
0.000000000000373
 10
1210.953750459296
 20
791.1242369072612
 30
0.0000000000011191
 10
1212.594265273267
 20
789.936615969155
 30
0.0000000000004796
 10
1213.47388259128
 20
789.3711122166974
 30
0.000000000000373
 10
1215.298917619028
 20
788.3232307199492
 30
-0.000000000000373
 10
1216.242647171907
 20
787.8400861987071
 30
0.0000000000004796
 10
1218.117573298475
 20
786.9935527091971
 30
0.0000000000009592
 10
1219.048070898982
 20
786.6306738646969
 30
0.0000000000005862
 10
1220.830146562436
 20
786.0567427565971
 30
0.0000000000000533
 10
1221.677546434025
 20
785.8490963640385
 30
0.0000000000006928
 10
1223.277686013994
 20
785.6215752824287
 30
0.0000000000001599
 10
1224.012591367384
 20
785.6035369249918
 30
0.0000000000006395
 10
1224.956997367427
 20
785.8507667981363
 30
0.0
 10
1225.210690080353
 20
785.9493791377159
 30
0.000000000000373
 10
1225.691771916347
 20
786.2500927317875
 30
0.0000000000003197
 10
1225.918894318916
 20
786.4573007177502
 30
0.0000000000002665
 10
1226.088328630472
 20
786.7147987303312
 30
0.0
  0
LINE
  5
5F3
330
1F
100
AcDbEntity
  8
0
  6
Continuous
100
AcDbLine
 10
1227.42079317978
 20
788.7464996793593
 30
0.0000000000002132
 11
1227.473671383793
 21
788.8454096094506
 31
0.0000000000006928
210
0.4512273408960194
220
0.8440314034441271
230
0.2898359481293593
  0
LINE
  5
5F4
330
1F
100
AcDbEntity
  8
0
  6
Continuous
100
AcDbLine
 10
1208.818528504334
 20
798.6914500566714
 30
-0.0000000000001066
 11
1208.871406708346
 21
798.7903599867628
 31
0.000000000000373
210
0.4512273408960194
220
0.8440314034441271
230
0.2898359481293593
  0
LINE
  5
5F5
330
1F
100
AcDbEntity
  8
0
  6
Continuous
100
AcDbLine
 10
1304.903046179109
 20
978.9169322012027
 30
0.0000000000004263
 11
1305.960610259336
 21
980.8951308030232
 31
0.0000000000004796
210
0.4512273408960194
220
0.8440314034441271
230
0.2898359481293593
  0
LINE
  5
5F6
330
1F
100
AcDbEntity
  8
0
  6
Continuous
100
AcDbLine
 10
1317.362596149746
 20
971.4418339839236
 30
-0.0000000000005329
 11
1317.44396401102
 21
971.2245699296223
 31
0.000000000000373
210
0.4512273408960194
220
0.8440314034441271
230
0.2898359481293593
  0
LINE
  5
5F7
330
1F
100
AcDbEntity
  8
0
  6
Continuous
100
AcDbLine
 10
1316.57660998494
 20
969.6021637286545
 30
0.0000000000005329
 11
1220.288491547889
 21
789.4929629474305
 31
0.0000000000009059
210
0.4512273408960194
220
0.8440314034441271
230
0.2898359481293593
  0
LINE
  5
5F8
330
1F
100
AcDbEntity
  8
0
  6
Continuous
100
AcDbLine
 10
1304.804222643729
 20
978.2349590428863
 30
0.0000000000001066
 11
1208.871406708383
 21
798.7903599867428
 31
0.000000000000373
210
0.4512273408960194
220
0.8440314034441271
230
0.2898359481293593
  0
LINE
  5
5F9
330
1F
100
AcDbEntity
  8
0
  6
Continuous
100
AcDbLine
 10
1227.473671383756
 20
788.8454096094688
 30
0.0000000000006928
 11
1421.00789806494
 21
1150.855753742928
 31
0.0000000000001332
210
0.4512273408960194
220
0.8440314034441271
230
0.2898359481293593
  0
LWPOLYLINE
  5
5FA
330
1F
100
AcDbEntity
  8
0
100
AcDbPolyline
 90
        6
 70
     1
 43
0.0
 10
972.9982384004932
 20
890.2064619481922
 10
972.9982384004932
 20
904.384887673749
 42
-0.4142135623730951
 10
976.7482384004933
 20
908.1348876737489
 10
980.5354836527065
 20
908.1348876737489
 42
-0.4142135623730951
 10
984.2854836527065
 20
904.384887673749
 10
984.2854836527065
 20
890.2064619481922
  0
ELLIPSE
  5
5FB
330
1F
100
AcDbEntity
  8
0
  6
Continuous
100
AcDbEllipse
 10
1444.941546634752
 20
818.7654886781352
 30
-0.0000000000002931
 11
-9.301132337722387
 21
4.972475188656028
 31
0.0000000000000012
210
0.0000000000000002
220
0.0000000000000001
230
1.0
 40
0.2898359481293595
 41
0.8490534587051316
 42
3.141592653589781
  0
ELLIPSE
  5
5FC
330
1F
100
AcDbEntity
  8
0
  6
Continuous
100
AcDbEllipse
 10
1444.941546634752
 20
818.7654886781352
 30
-0.0000000000002931
 11
-9.301132337678335
 21
4.972475188648735
 31
-0.0000000000000005
210
0.0000000000000001
220
0.0000000000000002
230
1.0
 40
0.2898359481302152
 41
0.0000000000046907
 42
1.950083942920172
  0
ELLIPSE
  5
5FD
330
1F
100
AcDbEntity
  8
0
  6
Continuous
100
AcDbEllipse
 10
1444.994424838764
 20
818.8643986082267
 30
0.0000000000001599
 11
-9.301132337722387
 21
4.972475188656028
 31
0.0000000000000012
210
0.0000000000000002
220
0.0000000000000001
230
1.0
 40
0.2898359481293595
 41
6.256734657224523
 42
7.132238765884717
  0
ELLIPSE
  5
5FE
330
1F
100
AcDbEntity
  8
0
  6
Continuous
100
AcDbEllipse
 10
1444.994424838764
 20
818.8643986082267
 30
0.0000000000001599
 11
-9.301132337722387
 21
4.972475188656028
 31
0.0000000000000012
210
0.0000000000000002
220
0.0000000000000001
230
1.0
 40
0.2898359481293595
 41
0.8490534587051316
 42
3.168043303544889
  0
ELLIPSE
  5
5FF
330
1F
100
AcDbEntity
  8
0
  6
Continuous
100
AcDbEllipse
 10
1444.994424838764
 20
818.8643986082267
 30
0.0000000000001599
 11
9.301132337722387
 21
-4.972475188656028
 31
-0.0000000000000012
210
0.0000000000000002
220
0.0000000000000001
230
1.0
 40
0.2898359481293595
 41
3.990646112294924
 42
6.309635957134682
  0
ELLIPSE
  5
600
330
1F
100
AcDbEntity
  8
0
  6
Continuous
100
AcDbEllipse
 10
1444.994424838764
 20
818.8643986082267
 30
0.0000000000001599
 11
9.301132337722387
 21
-4.972475188656028
 31
-0.0000000000000012
210
0.0000000000000002
220
0.0000000000000001
230
1.0
 40
0.2898359481293595
 41
3.11514200363473
 42
3.990646112294924
  0
ELLIPSE
  5
601
330
1F
100
AcDbEntity
  8
0
  6
Continuous
100
AcDbEllipse
 10
1444.941546634752
 20
818.7654886781352
 30
-0.0000000000002931
 11
-9.301132337722387
 21
4.972475188656028
 31
0.0000000000000012
210
0.0000000000000002
220
0.0000000000000001
230
1.0
 40
0.2898359481293595
 41
-0.0000000000000116
 42
0.8490534587051316
  0
ELLIPSE
  5
602
330
1F
100
AcDbEntity
  8
0
  6
Continuous
100
AcDbEllipse
 10
1251.354441749559
 20
456.6562346145862
 30
0.0
 11
-9.301132337722387
 21
4.972475188656028
 31
0.0000000000000012
210
0.0000000000000002
220
0.0000000000000001
230
1.0
 40
0.2898359481293595
 41
-0.0000000000000116
 42
0.8490534587051316
  0
ELLIPSE
  5
603
330
1F
100
AcDbEntity
  8
0
  6
Continuous
100
AcDbEllipse
 10
1251.354441749559
 20
456.6562346145862
 30
0.0
 11
-9.301132337722387
 21
4.972475188656028
 31
0.0000000000000012
210
0.0000000000000002
220
0.0000000000000001
230
1.0
 40
0.2898359481293595
 41
0.8490534587051316
 42
3.141592653589781
  0
ELLIPSE
  5
604
330
1F
100
AcDbEntity
  8
0
  6
Continuous
100
AcDbEllipse
 10
1251.354441749559
 20
456.6562346145862
 30
0.0
 11
9.301132337722387
 21
-4.972475188656028
 31
-0.0000000000000012
210
0.0000000000000002
220
0.0000000000000001
230
1.0
 40
0.2898359481293595
 41
3.990646112294924
 42
6.283185307179574
  0
ELLIPSE
  5
605
330
1F
100
AcDbEntity
  8
0
  6
Continuous
100
AcDbEllipse
 10
1251.354441749559
 20
456.6562346145862
 30
0.0
 11
9.301132337722387
 21
-4.972475188656028
 31
-0.0000000000000012
210
0.0000000000000002
220
0.0000000000000001
230
1.0
 40
0.2898359481293595
 41
3.141592653589781
 42
3.990646112294924
  0
ELLIPSE
  5
606
330
1F
100
AcDbEntity
  8
0
  6
Continuous
100
AcDbEllipse
 10
1251.407319953568
 20
456.7551445446757
 30
0.0000000000004796
 11
-9.301132337722387
 21
4.972475188656028
 31
0.0000000000000012
210
0.0000000000000002
220
0.0000000000000001
230
1.0
 40
0.2898359481293595
 41
-0.0000000000000116
 42
0.8490534587051316
  0
ELLIPSE
  5
607
330
1F
100
AcDbEntity
  8
0
  6
Continuous
100
AcDbEllipse
 10
1251.407319953568
 20
456.7551445446757
 30
0.0000000000004796
 11
-9.301132337722387
 21
4.972475188656028
 31
0.0000000000000012
210
0.0000000000000002
220
0.0000000000000001
230
1.0
 40
0.2898359481293595
 41
0.8490534587051316
 42
3.141592653589781
  0
ELLIPSE
  5
608
330
1F
100
AcDbEntity
  8
0
  6
Continuous
100
AcDbEllipse
 10
1348.703215334247
 20
638.7494159123222
 30
0.0000000000006928
 11
9.507824167412337
 21
-5.082974637272932
 31
-0.000000000000001
210
0.0000000000000002
220
0.0000000000000002
230
1.0
 40
0.2898359481293596
 41
2.934580654328779
 42
5.046711570261047
  0
ELLIPSE
  5
609
330
1F
100
AcDbEntity
  8
0
  6
Continuous
100
AcDbEllipse
 10
1347.64565125402
 20
636.7712173104979
 30
0.0000000000004263
 11
-9.507824167412337
 21
5.082974637272932
 31
0.000000000000001
210
0.0000000000000002
220
0.0000000000000002
230
1.0
 40
0.2898359481293596
 41
-0.0000000000000455
 42
1.905118916671273
  0
SPLINE
  5
60A
330
1F
100
AcDbEntity
  8
0
  6
Continuous
100
AcDbSpline
210
0.0000000000009843
220
-0.0000000000031483
230
-1.0
 70
     8
 71
     3
 72
    22
 73
    18
 74
     0
 42
0.0000000001
 43
0.0000000001
 40
6.030662373476993
 40
6.030662373476993
 40
6.030662373476993
 40
6.030662373476993
 40
6.407353829202204
 40
6.407353829202204
 40
6.784045284927413
 40
6.784045284927413
 40
7.160736740652624
 40
7.160736740652624
 40
7.537428196377835
 40
7.537428196377835
 40
7.91426419263626
 40
7.91426419263626
 40
8.291100188894686
 40
8.291100188894686
 40
8.667936185153113
 40
8.667936185153113
 40
9.044772181411538
 40
9.044772181411538
 40
9.044772181411538
 40
9.044772181411538
 10
1349.811390892441
 20
632.5394234752226
 30
0.0000000000005329
 10
1349.981900148209
 20
632.705601829774
 30
0.0000000000003197
 10
1349.965717415437
 20
632.6808823927227
 30
-0.0000000000005862
 10
1349.928076153463
 20
632.6338675716494
 30
0.0000000000002132
 10
1349.906619563245
 20
632.6115709854226
 30
0.0000000000005329
 10
1349.859735690464
 20
632.5710911033062
 30
-0.0000000000004263
 10
1349.834270889724
 20
632.5528759297691
 30
0.0000000000009592
 10
1349.781170058543
 20
632.5216077106148
 30
0.0000000000005329
 10
1349.753532548143
 20
632.5085571820242
 30
-0.0000000000002132
 10
1349.698427039015
 20
632.48795825754
 30
0.0000000000005329
 10
1349.669077371854
 20
632.4797081271614
 30
0.0000000000001599
 10
1349.608790423685
 20
632.4686693442641
 30
-0.0000000000005862
 10
1349.577853209029
 20
632.4658788812436
 30
0.0000000000005329
 10
1349.516506718271
 20
632.4661936059588
 30
0.0000000000003197
 10
1349.486048244786
 20
632.4692993798058
 30
0.0000000000009059
 10
1349.427610883425
 20
632.480985617835
 30
-0.0000000000002665
 10
1349.399632629535
 20
632.4895684676381
 30
0.0000000000005862
 10
1349.373787108284
 20
632.500210850109
 30
0.0000000000001599
  0
LINE
  5
60B
330
1F
100
AcDbEntity
  8
0
  6
Continuous
100
AcDbLine
 10
1350.629717774774
 20
633.9173600079017
 30
0.0000000000007461
 11
1349.99517932664
 21
632.7304408468086
 31
-0.0000000000002665
210
0.4512273408960194
220
0.8440314034441271
230
0.2898359481293593
  0
SPLINE
  5
60C
330
1F
100
AcDbEntity
  8
0
  6
Continuous
100
AcDbSpline
210
0.000000000001306
220
0.0000000000007273
230
1.0
 70
     8
 71
     3
 72
    22
 73
    18
 74
     0
 42
0.0000000001
 43
0.0000000001
 40
9.047215022640344
 40
9.047215022640344
 40
9.047215022640344
 40
9.047215022640344
 40
9.424051018898769
 40
9.424051018898769
 40
9.800887015157195
 40
9.800887015157195
 40
10.17772301141562
 40
10.17772301141562
 40
10.55455900767404
 40
10.55455900767404
 40
10.93125046339926
 40
10.93125046339926
 40
11.30794191912446
 40
11.30794191912446
 40
11.68463337484968
 40
11.68463337484968
 40
12.06132483057489
 40
12.06132483057489
 40
12.06132483057489
 40
12.06132483057489
 10
1350.431351188509
 20
634.4784094519314
 30
0.0000000000001599
 10
1350.457196709761
 20
634.4677670694606
 30
0.0000000000006395
 10
1350.482636415926
 20
634.4544358061544
 30
-0.0000000000000533
 10
1350.530374696561
 20
634.4227366848123
 30
0.0000000000000533
 10
1350.552674861831
 20
634.4043706026665
 30
0.0000000000003197
 10
1350.592439201157
 20
634.3636859537315
 30
0.0000000000001599
 10
1350.609935301724
 20
634.3413344952374
 30
0.0000000000001599
 10
1350.639154609008
 20
634.2942605217455
 30
-0.0000000000001066
 10
1350.650875818651
 20
634.2695362057881
 30
0.0000000000008527
 10
1350.668416456548
 20
634.2198691509881
 30
0.0000000000006395
 10
1350.674836575349
 20
634.1932320472375
 30
0.0000000000006928
 10
1350.681735278437
 20
634.1380780940604
 30
0.000000000000373
 10
1350.682216647022
 20
634.1095611674051
 30
0.0
 10
1350.676988030204
 20
634.0525634063293
 30
0.0000000000004263
 10
1350.671274057585
 20
634.0240368127366
 30
-0.0000000000000533
 10
1350.654279712714
 20
633.9688544401875
 30
0.0000000000004796
 10
1350.642996953204
 20
633.9421990249363
 30
0.0000000000001066
 10
1350.629717774774
 20
633.9173600079017
 30
0.0000000000007461
  0
SPLINE
  5
60D
330
1F
100
AcDbEntity
  8
0
  6
Continuous
100
AcDbSpline
210
0.0000000084814309
220
-0.0000000193045327
230
0.9999999999999998
 70
     8
 71
     3
 72
     8
 73
     4
 74
     0
 42
0.0000000001
 43
0.0000000001
 40
8.958811048616279
 40
8.958811048616279
 40
8.958811048616279
 40
8.958811048616279
 40
9.044772181411536
 40
9.044772181411536
 40
9.044772181411536
 40
9.044772181411536
 10
1339.707398795995
 20
644.2929909755954
 30
0.0000000000000533
 10
1339.705377707932
 20
644.29220469847
 30
0.0000000000009059
 10
1339.703306505672
 20
644.2912944024215
 30
0.0000000000004796
 10
1339.701191126463
 20
644.2902652758335
 30
0.0000000000001066
  0
SPLINE
  5
60E
330
1F
100
AcDbEntity
  8
0
  6
Continuous
100
AcDbSpline
210
-0.00000000003357
220
-0.0000000000363984
230
1.0
 70
     8
 71
     3
 72
    14
 73
    10
 74
     0
 42
0.0000000001
 43
0.0000000001
 40
13.76145653033968
 40
13.76145653033968
 40
13.76145653033968
 40
13.76145653033968
 40
13.94526565719785
 40
13.94526565719785
 40
14.32210836953989
 40
14.32210836953989
 40
14.69895108188192
 40
14.69895108188192
 40
15.07579379422396
 40
15.07579379422396
 40
15.07579379422396
 40
15.07579379422396
 10
1350.597369524131
 20
634.3790901933249
 30
0.0000000000002665
 10
1350.591624044783
 20
634.3910128264802
 30
0.0
 10
1350.585184193582
 20
634.4027777622674
 30
0.0000000000005862
 10
1350.563444966536
 20
634.4378021732888
 30
0.0000000000006395
 10
1350.545945881185
 20
634.4601594403799
 30
-0.0000000000003197
 10
1350.506174439192
 20
634.5008582109628
 30
0.0000000000002665
 10
1350.48387014266
 20
634.5192326313523
 30
0.0000000000007994
 10
1350.43612279681
 20
634.5509507876219
 30
0.0000000000005862
 10
1350.410678157642
 20
634.5642927530558
 30
0.0000000000004796
 10
1350.384827623925
 20
634.5749465997511
 30
0.000000000000373
  0
ELLIPSE
  5
60F
330
1F
100
AcDbEntity
  8
0
  6
Continuous
100
AcDbEllipse
 10
1348.703215334247
 20
638.7494159123222
 30
0.0000000000006928
 11
9.301132337685174
 21
-4.972475188636133
 31
-0.0000000000000026
210
0.0000000000000003
220
0.0
230
1.0
 40
0.2898359481293596
 41
3.141592653586791
 42
5.045744451669375
  0
ELLIPSE
  5
610
330
1F
100
AcDbEntity
  8
0
  6
Continuous
100
AcDbEllipse
 10
1251.407319953568
 20
456.7551445446757
 30
0.0000000000004796
 11
-9.301132337685185
 21
4.972475188636139
 31
-0.0000000000000005
210
0.0000000000000001
220
0.0000000000000002
230
1.0
 40
0.2898359481293597
 41
-0.0000000000000224
 42
1.942478296348357
  0
ELLIPSE
  5
611
330
1F
100
AcDbEntity
  8
0
  6
Continuous
100
AcDbEllipse
 10
1253.419926540523
 20
452.4854724183192
 30
-0.0000000000002665
 11
0.1033459148635821
 21
-0.0552497243184003
 31
0.0
210
0.0000000000000001
220
0.0000000000000002
230
1.0
 40
0.2898359481293595
 41
5.084070949947543
 42
6.283185307168933
  0
LINE
  5
612
330
1F
100
AcDbEntity
  8
0
  6
Continuous
100
AcDbLine
 10
1350.681034635202
 20
634.1036807098086
 30
0.0000000000011724
 11
1447.07416692241
 21
814.4093123791851
 31
0.0000000000003464
210
0.4512273408960194
220
0.8440314034441271
230
0.2898359481293593
  0
ELLIPSE
  5
613
330
1F
100
AcDbEntity
  8
0
  6
Continuous
100
AcDbEllipse
 10
1444.941546634752
 20
818.7654886781352
 30
-0.0000000000002931
 11
9.301132337685185
 21
-4.972475188636139
 31
0.0000000000000005
210
0.0000000000000001
220
0.0000000000000002
230
1.0
 40
0.2898359481293597
 41
5.094682744765916
 42
6.283185307179564
  0
LINE
  5
614
330
1F
100
AcDbEntity
  8
0
  6
Continuous
100
AcDbLine
 10
1253.53994024123
 20
452.3989682457274
 30
0.0000000000011191
 11
1253.525901513331
 21
452.4351404090054
 31
0.0000000000001599
210
0.4512273408960194
220
0.8440314034441271
230
0.2898359481293593
  0
ELLIPSE
  5
615
330
1F
100
AcDbEntity
  8
0
  6
Continuous
100
AcDbEllipse
 10
1251.407319953568
 20
456.7551445446757
 30
0.0000000000004796
 11
-9.301132337685185
 21
4.972475188636139
 31
-0.0000000000000005
210
0.0000000000000001
220
0.0000000000000002
230
1.0
 40
0.2898359481293597
 41
1.953090091176069
 42
3.14159265358977
  0
LINE
  5
616
330
1F
100
AcDbEntity
  8
0
  6
Continuous
100
AcDbLine
 10
1347.325504986315
 20
613.8019131439547
 30
-0.0000000000002665
 11
1349.367362394364
 21
613.4454548079471
 31
0.000000000000373
210
0.4512273408960194
220
0.8440314034441271
230
0.2898359481293593
  0
LINE
  5
617
330
1F
100
AcDbEntity
  8
0
  6
Continuous
100
AcDbLine
 10
1349.367362394364
 20
613.4454548079471
 30
0.000000000000373
 11
1370.518643998867
 21
653.0094268443905
 31
0.0000000000007461
210
0.4512273408960194
220
0.8440314034441271
230
0.2898359481293593
  0
LINE
  5
618
330
1F
100
AcDbEntity
  8
0
  6
Continuous
100
AcDbLine
 10
1370.518643998867
 20
653.0094268443905
 30
0.0000000000007461
 11
1369.019222891467
 21
654.3805250982883
 31
0.0000000000004796
210
0.4512273408960194
220
0.8440314034441271
230
0.2898359481293593
  0
LINE
  5
619
330
1F
100
AcDbEntity
  8
0
  6
Continuous
100
AcDbLine
 10
1368.476786590817
 20
653.3658851803998
 30
0.0000000000001599
 11
1370.518643998867
 21
653.0094268443905
 31
0.0000000000007461
210
0.4512273408960194
220
0.8440314034441271
230
0.2898359481293593
  0
ELLIPSE
  5
61A
330
1F
100
AcDbEntity
  8
0
  6
Continuous
100
AcDbEllipse
 10
1351.254765329965
 20
619.9018352469871
 30
-0.0000000000009592
 11
0.3163230629171022
 21
0.3459281462482389
 31
-0.0000000000000001
210
0.0000000000000001
220
0.0000000000000002
230
1.0
 40
0.6323345656966988
 41
5.095846263283
 42
5.118025263186115
  0
ELLIPSE
  5
61B
330
1F
100
AcDbEntity
  8
0
  6
Continuous
100
AcDbEllipse
 10
1351.254765329965
 20
619.9018352469871
 30
-0.0000000000009592
 11
0.3163230629171022
 21
0.3459281462482389
 31
-0.0000000000000001
210
0.0000000000000001
220
0.0000000000000002
230
1.0
 40
0.6323345656966988
 41
4.306752697583857
 42
5.095846263283
  0
ELLIPSE
  5
61C
330
1F
100
AcDbEntity
  8
0
  6
Continuous
100
AcDbEllipse
 10
1351.656748756876
 20
619.5342542038676
 30
0.0
 11
-0.3163230629171022
 21
-0.3459281462482389
 31
0.0000000000000001
210
0.0000000000000001
220
0.0000000000000002
230
1.0
 40
0.6323345656966988
 41
0.0
 42
6.283185307179586
  0
ELLIPSE
  5
61D
330
1F
100
AcDbEntity
  8
0
  6
Continuous
100
AcDbEllipse
 10
1366.060662453116
 20
647.5966156724977
 30
-0.0000000000006395
 11
0.3163230629171022
 21
0.3459281462482389
 31
-0.0000000000000001
210
0.0000000000000001
220
0.0000000000000002
230
1.0
 40
0.6323345656966988
 41
5.095846263282963
 42
5.118025263185661
  0
ELLIPSE
  5
61E
330
1F
100
AcDbEntity
  8
0
  6
Continuous
100
AcDbEllipse
 10
1366.060662453116
 20
647.5966156724977
 30
-0.0000000000006395
 11
0.3163230629171022
 21
0.3459281462482389
 31
-0.0000000000000001
210
0.0000000000000001
220
0.0000000000000002
230
1.0
 40
0.6323345656966988
 41
4.306752697583537
 42
5.095846263282963
  0
ELLIPSE
  5
61F
330
1F
100
AcDbEntity
  8
0
  6
Continuous
100
AcDbEllipse
 10
1366.462645880026
 20
647.2290346293781
 30
0.0000000000002132
 11
-0.3163230629171022
 21
-0.3459281462482389
 31
0.0000000000000001
210
0.0000000000000001
220
0.0000000000000002
230
1.0
 40
0.6323345656966988
 41
0.0
 42
6.283185307179586
  0
LINE
  5
620
330
1F
100
AcDbEntity
  8
0
  6
Continuous
100
AcDbLine
 10
1447.046598955391
 20
814.4201777809927
 30
-0.0000000000000266
 11
1350.67874491852
 21
634.1618296761904
 31
0.000000000000373
210
0.4512273408960194
220
0.8440314034441271
230
0.2898359481293593
  0
LINE
  5
621
330
1F
100
AcDbEntity
  8
0
  6
Continuous
100
AcDbLine
 10
1435.640414297067
 20
823.7379638667704
 30
-0.0000000000005063
 11
1339.402082996587
 21
643.7218911009519
 31
0.0000000000001066
210
0.4512273408960194
220
0.8440314034441271
230
0.2898359481293593
  0
LINE
  5
622
330
1F
100
AcDbEntity
  8
0
  6
Continuous
100
AcDbLine
 10
1437.025757050355
 20
825.86857474591
 30
0.0000000000004263
 11
1435.734662305234
 21
823.9064318489132
 31
0.0000000000006661
210
0.4512273408960194
220
0.8440314034441271
230
0.2898359481293593
  0
LINE
  5
623
330
1F
100
AcDbEntity
  8
0
  6
Continuous
100
AcDbLine
 10
1455.244919900916
 20
816.1284343046142
 30
0.0000000000002132
 11
1454.330419944835
 21
813.964960195816
 31
-0.0000000000006661
210
0.4512273408960194
220
0.8440314034441271
230
0.2898359481293593
  0
SPLINE
  5
624
330
1F
100
AcDbEntity
  8
0
  6
Continuous
100
AcDbSpline
210
-0.0000000000000342
220
-0.0000000000000297
230
1.0
 70
     8
 71
     3
 72
    28
 73
    24
 74
     0
 42
0.0000000001
 43
0.0000000001
 40
0.7481935180447329
 40
0.7481935180447329
 40
0.7481935180447329
 40
0.7481935180447329
 40
0.9022574624253586
 40
0.9022574624253586
 40
1.117195843484027
 40
1.117195843484027
 40
1.496203935396554
 40
1.496203935396554
 40
1.852408053103022
 40
1.852408053103022
 40
2.18847970126394
 40
2.18847970126394
 40
2.519542639625475
 40
2.519542639625475
 40
2.851594403993391
 40
2.851594403993391
 40
3.191818071467561
 40
3.191818071467561
 40
3.559993155533702
 40
3.559993155533702
 40
3.698439013629139
 40
3.698439013629139
 40
3.836884871724575
 40
3.836884871724575
 40
3.836884871724575
 40
3.836884871724575
 10
1455.244919900916
 20
816.1284343046142
 30
0.0000000000000799
 10
1455.378471158822
 20
816.4443825851636
 30
0.0000000000009859
 10
1455.419816494653
 20
816.7837391115542
 30
0.0000000000001332
 10
1455.366762932502
 20
817.529710929303
 30
0.0000000000001066
 10
1455.227786676844
 20
817.9183883394186
 30
0.0000000000008793
 10
1454.700857524015
 20
818.9481905984145
 30
0.0000000000002398
 10
1454.187512636196
 20
819.5760168037892
 30
-0.0000000000001332
 10
1452.910220501438
 20
820.8369668655546
 30
-0.0000000000000799
 10
1452.16033522153
 20
821.4591365689745
 30
0.0000000000002931
 10
1450.519820407556
 20
822.6467575070861
 30
-0.0000000000001599
 10
1449.640203089547
 20
823.21226125954
 30
0.000000000000373
 10
1447.815168061798
 20
824.2601427562883
 30
0.0000000000007461
 10
1446.871438508921
 20
824.7432872775339
 30
0.0000000000003464
 10
1444.996512382348
 20
825.5898207670421
 30
0.0000000000002931
 10
1444.066014781848
 20
825.9526996115424
 30
0.0000000000003464
 10
1442.283939118387
 20
826.5266307196421
 30
0.0000000000001865
 10
1441.436539246798
 20
826.7342771122027
 30
0.0000000000001599
 10
1439.836399666833
 20
826.9617981938106
 30
-0.000000000000453
 10
1439.101494313442
 20
826.9798365512512
 30
0.000000000000373
 10
1438.1570883134
 20
826.7326066781031
 30
0.0000000000001066
 10
1437.90339560047
 20
826.6339943385233
 30
0.0000000000000266
 10
1437.422313764479
 20
826.3332807444518
 30
0.000000000000453
 10
1437.195191361911
 20
826.1260727584909
 30
-0.0000000000006128
 10
1437.025757050355
 20
825.8685747459081
 30
-0.0000000000003197
  0
LINE
  5
625
330
1F
100
AcDbEntity
  8
0
  6
Continuous
100
AcDbLine
 10
1454.242678972477
 20
813.7930134894784
 30
-0.0000000000000799
 11
1454.295557176486
 21
813.8919234195697
 31
-0.0000000000000533
210
0.4512273408960194
220
0.8440314034441271
230
0.2898359481293593
  0
LINE
  5
626
330
1F
100
AcDbEntity
  8
0
  6
Continuous
100
AcDbLine
 10
1435.64041429703
 20
823.7379638667905
 30
-0.0000000000002931
 11
1435.69329250104
 21
823.8368737968817
 31
-0.0000000000000533
210
0.4512273408960194
220
0.8440314034441271
230
0.2898359481293593
  0
LINE
  5
627
330
1F
100
AcDbEntity
  8
0
  6
Continuous
100
AcDbLine
 10
1259.323109537971
 20
449.652058476901
 30
0.0000000000002132
 11
1260.614204283091
 21
451.6142013738959
 31
0.0000000000004263
210
0.4512273408960194
220
0.8440314034441271
230
0.2898359481293593
  0
LINE
  5
628
330
1F
100
AcDbEntity
  8
0
  6
Continuous
100
AcDbLine
 10
1241.103946687411
 20
459.3921989181969
 30
0.0000000000005329
 11
1242.018446643488
 21
461.5556730269933
 31
0.0000000000000533
210
0.4512273408960194
220
0.8440314034441271
230
0.2898359481293593
  0
SPLINE
  5
629
330
1F
100
AcDbEntity
  8
0
  6
Continuous
100
AcDbSpline
210
0.0000000000000321
220
0.0000000000000547
230
1.0
 70
     8
 71
     3
 72
    28
 73
    24
 74
     0
 42
0.0000000001
 43
0.0000000001
 40
3.889786171634597
 40
3.889786171634597
 40
3.889786171634597
 40
3.889786171634597
 40
4.043850116015229
 40
4.043850116015229
 40
4.258788497073952
 40
4.258788497073952
 40
4.637796588986527
 40
4.637796588986527
 40
4.994000706692978
 40
4.994000706692978
 40
5.330072354853891
 40
5.330072354853891
 40
5.661135293215425
 40
5.661135293215425
 40
5.993187057583343
 40
5.993187057583343
 40
6.333410725057519
 40
6.333410725057519
 40
6.701585809123682
 40
6.701585809123682
 40
6.840031667219017
 40
6.840031667219017
 40
6.978477525314352
 40
6.978477525314352
 40
6.978477525314352
 40
6.978477525314352
 10
1241.103946687411
 20
459.3921989181969
 30
0.0000000000005329
 10
1240.970395429505
 20
459.0762506376456
 30
0.0000000000009059
 10
1240.929050093674
 20
458.7368941112551
 30
-0.0000000000001599
 10
1240.982103655821
 20
457.9909222935063
 30
0.0000000000000533
 10
1241.121079911482
 20
457.6022448833906
 30
-0.0000000000002665
 10
1241.648009064312
 20
456.5724426243929
 30
0.0000000000004796
 10
1242.161353952129
 20
455.94461641902
 30
0.0000000000005329
 10
1243.438646086892
 20
454.6836663572527
 30
0.000000000000373
 10
1244.188531366796
 20
454.0614966538311
 30
0.0000000000011191
 10
1245.829046180767
 20
452.8738757157249
 30
0.0000000000004796
 10
1246.70866349878
 20
452.3083719632674
 30
0.000000000000373
 10
1248.533698526528
 20
451.2604904665192
 30
-0.000000000000373
 10
1249.477428079407
 20
450.777345945277
 30
0.0000000000004796
 10
1251.352354205975
 20
449.930812455767
 30
0.0000000000009592
 10
1252.282851806482
 20
449.5679336112667
 30
0.0000000000005862
 10
1254.064927469936
 20
448.994002503167
 30
0.0000000000000533
 10
1254.912327341525
 20
448.7863561106084
 30
0.0000000000006928
 10
1256.512466921494
 20
448.5588350289987
 30
0.0000000000001599
 10
1257.247372274884
 20
448.5407966715617
 30
0.0000000000006395
 10
1258.191778274927
 20
448.7880265447062
 30
0.0
 10
1258.445470987853
 20
448.8866388842858
 30
0.000000000000373
 10
1258.926552823847
 20
449.1873524783573
 30
0.0000000000003197
 10
1259.153675226415
 20
449.39456046432
 30
0.0000000000002665
 10
1259.323109537971
 20
449.652058476901
 30
0.0
  0
LINE
  5
62A
330
1F
100
AcDbEntity
  8
0
  6
Continuous
100
AcDbLine
 10
1260.65557408728
 20
451.6837594259292
 30
0.0000000000002132
 11
1260.708452291293
 21
451.7826693560206
 31
0.0000000000006928
210
0.4512273408960194
220
0.8440314034441271
230
0.2898359481293593
  0
LINE
  5
62B
330
1F
100
AcDbEntity
  8
0
  6
Continuous
100
AcDbLine
 10
1242.053309411834
 20
461.6287098032413
 30
-0.0000000000001066
 11
1242.106187615846
 21
461.7276197333327
 31
0.000000000000373
210
0.4512273408960194
220
0.8440314034441271
230
0.2898359481293593
  0
LINE
  5
62C
330
1F
100
AcDbEntity
  8
0
  6
Continuous
100
AcDbLine
 10
1338.137827086609
 20
641.8541919477708
 30
0.0000000000004263
 11
1339.195391166838
 21
643.8323905495932
 31
0.0000000000004796
210
0.4512273408960194
220
0.8440314034441271
230
0.2898359481293593
  0
LINE
  5
62D
330
1F
100
AcDbEntity
  8
0
  6
Continuous
100
AcDbLine
 10
1350.597377057246
 20
634.3790937304935
 30
-0.0000000000005329
 11
1350.67874491852
 21
634.1618296761904
 31
0.000000000000373
210
0.4512273408960194
220
0.8440314034441271
230
0.2898359481293593
  0
LINE
  5
62E
330
1F
100
AcDbEntity
  8
0
  6
Continuous
100
AcDbLine
 10
1349.811390892441
 20
632.5394234752226
 30
0.0000000000005329
 11
1253.523272455389
 21
452.4302226940005
 31
0.0000000000009059
210
0.4512273408960194
220
0.8440314034441271
230
0.2898359481293593
  0
LINE
  5
62F
330
1F
100
AcDbEntity
  8
0
  6
Continuous
100
AcDbLine
 10
1338.039003551231
 20
641.1722187894544
 30
0.0000000000001066
 11
1242.106187615883
 21
461.7276197333127
 31
0.000000000000373
210
0.4512273408960194
220
0.8440314034441271
230
0.2898359481293593
  0
LINE
  5
630
330
1F
100
AcDbEntity
  8
0
  6
Continuous
100
AcDbLine
 10
1260.708452291256
 20
451.7826693560388
 30
0.0000000000006928
 11
1454.24267897244
 21
813.7930134894983
 31
0.0000000000001332
210
0.4512273408960194
220
0.8440314034441271
230
0.2898359481293593
  0
LINE
  5
631
330
1F
100
AcDbEntity
  8
0
100
AcDbLine
 10
564.7108376092445
 20
814.7077865571942
 30
0.0
 11
697.6440445767192
 21
814.7077865571942
 31
0.0
  0
LINE
  5
632
330
1F
100
AcDbEntity
  8
0
100
AcDbLine
 10
712.6440445767192
 20
799.7077865571943
 30
0.0
 11
712.6440445767192
 21
614.3508730702002
 31
0.0
  0
ARC
  5
633
330
1F
100
AcDbEntity
  8
0
100
AcDbCircle
 10
697.6440445767192
 20
799.7077865571943
 30
0.0
 40
15.0
100
AcDbArc
 50
0.0
 51
90.0
  0
LINE
  5
634
330
1F
100
AcDbEntity
  8
0
100
AcDbLine
 10
727.6440445767192
 20
599.3508730702002
 30
0.0
 11
999.8468505261033
 21
599.3508730702002
 31
0.0
  0
ARC
  5
635
330
1F
100
AcDbEntity
  8
0
100
AcDbCircle
 10
727.6440445767192
 20
614.3508730702002
 30
0.0
 40
15.0
100
AcDbArc
 50
180.0
 51
270.0
  0
MTEXT
  5
636
330
1F
100
AcDbEntity
  8
0
100
AcDbMText
 10
428.120193036714
 20
1025.195189543669
 30
0.0
 40
14.27783203125
 41
860.1399749757952
 71
     1
 72
     5
  1
8Ω：120W以上\P2chパワーアンプ
  7
\U+6837式 1
 73
     1
 44
1.0
1001
ACAD
1000
MTEXTBEGIN
1070
    73
1070
     1
1070
    44
1040
1.0
1070
    74
1070
     0
1000
MTEXTEND
  0
LWPOLYLINE
  5
637
330
1F
100
AcDbEntity
  8
0
100
AcDbPolyline
 90
        4
 70
     1
 43
0.0
 10
369.6805222041265
 20
961.086951556296
 10
304.1031512735543
 20
961.086951556296
 10
304.1031512735543
 20
779.7165257836228
 10
369.6805222041265
 20
779.7165257836228
  0
MTEXT
  5
638
330
1F
100
AcDbEntity
  8
0
100
AcDbMText
 10
327.2319433759957
 20
920.6295126907177
 30
0.0
 40
22.501135867322
 41
41.13616714585492
 71
     1
 72
     5
  1
G\PE\PQ
  7
\U+6837式 1
 73
     1
 44
1.0
1001
ACAD
1000
MTEXTBEGIN
1070
    73
1070
     1
1070
    44
1040
1.0
1070
    74
1070
     0
1000
MTEXTEND
  0
LINE
  5
639
330
1F
100
AcDbEntity
  8
0
100
AcDbLine
 10
428.1091195921952
 20
926.0956907827226
 30
0.0
 11
369.6805222041265
 21
926.0956907827226
 31
0.0
  0
LINE
  5
63A
330
1F
100
AcDbEntity
  8
0
100
AcDbLine
 10
428.1091195921952
 20
814.7077865571942
 30
0.0
 11
369.6805222041265
 21
814.7077865571942
 31
0.0
  0
MTEXT
  5
63B
330
1F
100
AcDbEntity
  8
0
100
AcDbMText
 10
275.031206899327
 20
1026.330926182518
 30
0.0
 40
14.27783203125
 41
146.4524969403251
 71
     1
 72
     5
  1
空間調整用\P2chイコライザ
  7
\U+6837式 1
 73
     1
 44
1.0
1001
ACAD
1000
MTEXTBEGIN
1070
    73
1070
     1
1070
    44
1040
1.0
1070
    74
1070
     0
1000
MTEXTEND
  0
LINE
  5
63C
330
1F
100
AcDbEntity
  8
0
100
AcDbLine
 10
304.1031512735543
 20
926.0956907827226
 30
0.0
 11
245.6745538854856
 21
926.0956907827226
 31
0.0
  0
LINE
  5
63D
330
1F
100
AcDbEntity
  8
0
100
AcDbLine
 10
304.1031512735543
 20
814.7077865571942
 30
0.0
 11
245.6745538854856
 21
814.7077865571942
 31
0.0
  0
MTEXT
  5
63E
330
1F
100
AcDbEntity
  8
0
100
AcDbMText
 10
139.2560703173993
 20
885.6346720002918
 30
0.0
 40
22.501135867322
 41
228.8098562851997
 71
     1
 72
     5
  1
入力信号
  7
\U+6837式 1
 73
     1
 44
1.0
1001
ACAD
1000
MTEXTBEGIN
1070
    73
1070
     1
1070
    44
1040
1.0
1070
    74
1070
     0
1000
MTEXTEND
  0
MTEXT
  5
63F
330
1F
100
AcDbEntity
  8
0
100
AcDbMText
 10
1300.593920583226
 20
1118.710717070297
 30
0.0
 40
14.27783203125
 41
278.1261334901979
 71
     3
 72
     5
  1
SOUND POLE Speaker\PSP-16-R\PSP-8-R\PSP-4-R
  7
\U+6837式 1
 73
     1
 44
1.0
1001
ACAD
1000
MTEXTBEGIN
1070
    73
1070
     1
1070
    44
1040
1.0
1070
    74
1070
     0
1000
MTEXTEND
  0
MTEXT
  5
640
330
1F
100
AcDbEntity
  8
0
100
AcDbMText
 10
1335.159283688845
 20
514.3230363535573
 30
0.0
 40
14.27783203125
 41
278.1261334901979
 71
     1
 72
     5
  1
SOUND POLE Speaker\PSP-16-R\PSP-8-R\PSP-4-R
  7
\U+6837式 1
 73
     1
 44
1.0
1001
ACAD
1000
MTEXTBEGIN
1070
    73
1070
     1
1070
    44
1040
1.0
1070
    74
1070
     0
1000
MTEXTEND
  0
MTEXT
  5
641
330
1F
100
AcDbEntity
  8
0
100
AcDbMText
 10
678.812094010117
 20
974.2493386733954
 30
0.0
 40
14.27783203125
 41
131.2311823517708
 71
     2
 72
     5
  1
SPケーブル\PA
  7
\U+6837式 1
 73
     1
 44
1.0
1001
ACAD
1000
MTEXTBEGIN
1070
    73
1070
     1
1070
    44
1040
1.0
1070
    74
1070
     0
1000
MTEXTEND
  0
MTEXT
  5
642
330
1F
100
AcDbEntity
  8
0
100
AcDbMText
 10
636.981025148795
 20
862.861434447867
 30
0.0
 40
14.27783203125
 41
131.2311823517708
 71
     2
 72
     5
  1
SPケーブル\PA
  7
\U+6837式 1
 73
     1
 44
1.0
1001
ACAD
1000
MTEXTBEGIN
1070
    73
1070
     1
1070
    44
1040
1.0
1070
    74
1070
     0
1000
MTEXTEND
  0
MTEXT
  5
643
330
1F
100
AcDbEntity
  8
0
100
AcDbMText
 10
292.2291401107294
 20
684.6612387803112
 30
0.0
 40
17.1333984375
 41
157.4774188221249
 71
     2
 72
     5
  1
SPケーブル A
  7
\U+6837式 1
 73
     1
 44
1.0
1001
ACAD
1000
MTEXTBEGIN
1070
    73
1070
     1
1070
    44
1040
1.0
1070
    74
1070
     0
1000
MTEXTEND
  0
MTEXT
  5
644
330
1F
100
AcDbEntity
  8
0
100
AcDbMText
 10
231.3707561506607
 20
642.4027606312362
 30
0.0
 40
17.1333984375
 41
510.2069752533882
 71
     1
 72
     5
  1
パワーアンプ（+）　→　4Pスピコン（1+）\Pパワーアンプ（-）　→　4Pスピコン（1-）\P{\H0.8333x;※4Pスピコン2±未使用}
  7
\U+6837式 1
 73
     1
 44
1.0
1001
ACAD
1000
MTEXTBEGIN
1070
    73
1070
     1
1070
    44
1040
1.0
1070
    74
1070
     0
1000
MTEXTEND
  0
MTEXT
  5
645
330
1F
100
AcDbEntity
  8
0
100
AcDbMText
 10
292.2291401107294
 20
519.7146993258581
 30
0.0
 40
17.1333984375
 41
157.4774188221249
 71
     2
 72
     5
  1
SPケーブル B
  7
\U+6837式 1
 73
     1
 44
1.0
1001
ACAD
1000
MTEXTBEGIN
1070
    73
1070
     1
1070
    44
1040
1.0
1070
    74
1070
     0
1000
MTEXTEND
  0
MTEXT
  5
646
330
1F
100
AcDbEntity
  8
0
100
AcDbMText
 10
231.3707561506607
 20
477.456221176783
 30
0.0
 40
17.1333984375
 41
510.2069752533882
 71
     1
 72
     5
  1
4Pスピコン（1+）　→　4Pスピコン（1+）\P4Pスピコン（1-）　→　4Pスピコン（1-）\P{\H0.8333x;※4Pスピコン2±未使用}
  7
\U+6837式 1
 73
     1
 44
1.0
1001
ACAD
1000
MTEXTBEGIN
1070
    73
1070
     1
1070
    44
1040
1.0
1070
    74
1070
     0
1000
MTEXTEND
  0
MTEXT
  5
647
330
1F
100
AcDbEntity
  8
0
100
AcDbMText
 10
174.2568926012799
 20
1167.184087176844
 30
0.0
 40
14.27783203125
 41
768.2511482709419
 71
     1
 72
     5
  1
スピーカの特性を事前にDSP等にて調整する為のデフォルトパラメータは必要ありませんが、使用する環境やマイク特性によって変化する空間及びシステムの総合特性を調整するためのGEQ等のご使用を推奨致します。
  7
\U+6837式 1
 73
     1
 44
1.0
1001
ACAD
1000
MTEXTBEGIN
1070
    73
1070
     1
1070
    44
1040
1.0
1070
    74
1070
     0
1000
MTEXTEND
  0
LINE
  5
648
330
1F
100
AcDbEntity
  8
0
100
AcDbLine
 10
989.0290922006688
 20
831.7832481184364
 30
-0.0000000000000465
 11
1053.103703574231
 21
853.7669602311877
 31
-0.0000000000000465
210
0.0
220
0.8962024032375964
230
0.4436454129495272
  0
ELLIPSE
  5
649
330
1F
100
AcDbEntity
  8
0
100
AcDbEllipse
 10
1050.350790315245
 20
855.3462050879884
 30
-0.0000000000000465
 11
4.499999999999999
 21
0.0000000000000001
 31
0.0000000000000001
210
0.0
220
0.0000000000000002
230
1.0
 40
0.4436454129495277
 41
5.370670678029942
 42
6.283185307179594
  0
ELLIPSE
  5
64A
330
1F
100
AcDbEntity
  8
0
100
AcDbEllipse
 10
966.4552034769812
 20
844.7330559441985
 30
-0.0000000000000465
 11
-4.499999999999999
 21
-0.0000000000000001
 31
-0.0000000000000001
210
0.0
220
0.0000000000000002
230
1.0
 40
0.4436454129495277
 41
-0.000000000000006
 42
0.6582816976452495
  0
ELLIPSE
  5
64B
330
1F
100
AcDbEntity
  8
0
100
AcDbEllipse
 10
966.4552034769812
 20
847.1528024329405
 30
-0.0000000000001829
 11
-4.499999999999999
 21
-0.0000000000000001
 31
-0.0000000000000001
210
0.0
220
0.0000000000000002
230
1.0
 40
0.4436454129495277
 41
5.370670678029949
 42
6.941467004824835
  0
LINE
  5
64C
330
1F
100
AcDbEntity
  8
0
100
AcDbLine
 10
963.702290217995
 20
848.7320472897414
 30
-0.0000000000000465
 11
1027.776901591557
 21
870.7157594024907
 31
-0.0000000000000465
210
0.0
220
0.8962024032375964
230
0.4436454129495272
  0
ELLIPSE
  5
64D
330
1F
100
AcDbEntity
  8
0
100
AcDbEllipse
 10
1030.529814850543
 20
869.1365145456916
 30
-0.0000000000000465
 11
4.499999999999999
 21
0.0000000000000001
 31
0.0000000000000001
210
0.0
220
0.0000000000000002
230
1.0
 40
0.4436454129495277
 41
0.6582816976452542
 42
2.229078024440156
  0
LINE
  5
64E
330
1F
100
AcDbEntity
  8
0
100
AcDbLine
 10
1034.089515482407
 20
870.3578318852875
 30
-0.0000000000000465
 11
1053.91049094711
 21
858.9872689163263
 31
-0.0000000000000465
210
0.0
220
0.8962024032375964
230
0.4436454129495272
  0
ELLIPSE
  5
64F
330
1F
100
AcDbEntity
  8
0
100
AcDbEllipse
 10
1050.350790315245
 20
857.7659515767287
 30
-0.0000000000001829
 11
4.499999999999999
 21
0.0000000000000001
 31
0.0000000000000001
210
0.0
220
0.0000000000000002
230
1.0
 40
0.4436454129495277
 41
5.370670678029942
 42
6.941467004824844
  0
LINE
  5
650
330
1F
100
AcDbEntity
  8
0
100
AcDbLine
 10
1053.103703574231
 20
856.1867067199298
 30
-0.0000000000000465
 11
989.0290922006688
 21
834.2029946071786
 31
-0.0000000000000465
210
0.0
220
0.8962024032375964
230
0.4436454129495272
  0
LINE
  5
651
330
1F
100
AcDbEntity
  8
0
100
AcDbLine
 10
962.8955028451171
 20
843.5117386046009
 30
-0.0000000000000465
 11
982.7164783098186
 21
832.1411756356397
 31
-0.0000000000000465
210
0.0
220
0.8962024032375964
230
0.4436454129495272
  0
LINE
  5
652
330
1F
100
AcDbEntity
  8
0
100
AcDbLine
 10
982.7164783098186
 20
834.5609221243817
 30
-0.0000000000000465
 11
962.8955028451171
 21
845.9314850933429
 31
-0.0000000000000465
210
0.0
220
0.8962024032375964
230
0.4436454129495272
  0
ELLIPSE
  5
653
330
1F
100
AcDbEntity
  8
0
100
AcDbEllipse
 10
986.2761789416826
 20
835.7822394639793
 30
-0.0000000000000465
 11
-4.499999999999999
 21
-0.0000000000000001
 31
-0.0000000000000001
210
0.0
220
0.0000000000000002
230
1.0
 40
0.4436454129495277
 41
0.6582816976452611
 42
2.229078024440165
  0
ELLIPSE
  5
654
330
1F
100
AcDbEntity
  8
0
100
AcDbEllipse
 10
986.2761789416826
 20
833.3624929752373
 30
-0.0000000000000465
 11
4.499999999999999
 21
0.0000000000000001
 31
0.0000000000000001
210
0.0
220
0.0000000000000002
230
1.0
 40
0.4436454129495277
 41
3.799874351235042
 42
5.370670678029947
  0
LINE
  5
655
330
1F
100
AcDbEntity
  8
0
100
AcDbLine
 10
1019.155693274385
 20
855.265263988848
 30
-0.0000000000000465
 11
999.5773397991314
 21
848.5480186210631
 31
-0.0000000000000465
210
0.0
220
0.8962024032375964
230
0.4436454129495272
  0
ELLIPSE
  5
656
330
1F
100
AcDbEntity
  8
0
100
AcDbEllipse
 10
1018.467464959639
 20
855.6600752030469
 30
-0.0000000000001829
 11
1.124999999999999
 21
0.0
 31
0.0
210
0.0
220
0.0000000000000002
230
1.0
 40
0.4436454129495277
 41
5.370670678029967
 42
6.941467004824837
  0
LINE
  5
657
330
1F
100
AcDbEntity
  8
0
100
AcDbLine
 10
997.9991863264174
 20
848.6375005003633
 30
-0.0000000000000465
 11
992.4933598084452
 21
851.7959902139633
 31
-0.0000000000000465
210
0.0
220
0.8962024032375964
230
0.4436454129495272
  0
ELLIPSE
  5
658
330
1F
100
AcDbEntity
  8
0
100
AcDbEllipse
 10
998.8891114843836
 20
848.9428298352619
 30
-0.0000000000001829
 11
-1.124999999999999
 21
0.0
 31
0.0
210
0.0
220
0.0000000000000002
230
1.0
 40
0.4436454129495277
 41
0.6582816976452791
 42
2.229078024440147
  0
LINE
  5
659
330
1F
100
AcDbEntity
  8
0
100
AcDbLine
 10
1017.406159868923
 20
854.6650069152134
 30
-0.0000000000000465
 11
1013.851563599632
 21
856.704147762805
 31
-0.0000000000000465
210
0.0
220
0.8962024032375964
230
0.4436454129495272
  0
LINE
  5
65A
330
1F
100
AcDbEntity
  8
0
100
AcDbLine
 10
1013.851563599632
 20
859.123894251547
 30
-0.0000000000000465
 11
1019.357390117605
 21
855.9654045379472
 31
-0.0000000000000465
210
0.0
220
0.8962024032375964
230
0.4436454129495272
  0
ELLIPSE
  5
65B
330
1F
100
AcDbEntity
  8
0
100
AcDbEllipse
 10
1012.961638441666
 20
856.3988184279066
 30
-0.0000000000001829
 11
-1.124999999999999
 21
0.0
 31
0.0
210
0.0
220
0.0000000000000002
230
1.0
 40
0.4436454129495277
 41
3.799874351235044
 42
5.370670678029935
  0
ELLIPSE
  5
65C
330
1F
100
AcDbEntity
  8
0
100
AcDbEllipse
 10
1012.961638441666
 20
858.8185649166486
 30
-0.0000000000001829
 11
1.124999999999999
 21
0.0
 31
0.0
210
0.0
220
0.0000000000000002
230
1.0
 40
0.4436454129495277
 41
0.6582816976452519
 42
2.229078024440171
  0
LINE
  5
65D
330
1F
100
AcDbEntity
  8
0
100
AcDbLine
 10
1012.27341012692
 20
856.7936296421072
 30
-0.0000000000000465
 11
994.444590057127
 21
850.6766413479549
 31
-0.0000000000000465
210
0.0
220
0.8962024032375964
230
0.4436454129495272
  0
LINE
  5
65E
330
1F
100
AcDbEntity
  8
0
100
AcDbLine
 10
992.6950566516651
 20
852.4961307630626
 30
-0.0000000000000465
 11
1012.27341012692
 21
859.2133761308474
 31
-0.0000000000000465
210
0.0
220
0.8962024032375964
230
0.4436454129495272
  0
ELLIPSE
  5
65F
330
1F
100
AcDbEntity
  8
0
100
AcDbEllipse
 10
993.3832849664112
 20
852.1013195488636
 30
-0.0000000000000465
 11
-1.124999999999999
 21
0.0
 31
0.0
210
0.0
220
0.0000000000000002
230
1.0
 40
0.4436454129495277
 41
5.370670678029935
 42
6.941467004824828
  0
LINE
  5
660
330
1F
100
AcDbEntity
  8
0
100
AcDbLine
 10
987.3773442452774
 20
741.9903017047114
 30
-0.0000000000000465
 11
989.0290922006688
 21
741.0427547906298
 31
-0.0000000000000465
210
0.0
220
0.8962024032375964
230
0.4436454129495272
  0
LINE
  5
661
330
1F
100
AcDbEntity
  8
0
100
AcDbLine
 10
989.0290922006688
 20
831.7832481184364
 30
-0.0000000000000465
 11
1053.103703574231
 21
853.7669602311877
 31
-0.0000000000000465
210
0.0
220
0.8962024032375964
230
0.4436454129495272
  0
LINE
  5
662
330
1F
100
AcDbEntity
  8
0
100
AcDbLine
 10
1053.103703574231
 20
853.7669602311877
 30
-0.0000000000000465
 11
1053.103703574231
 21
763.026466903381
 31
-0.0000000000000465
210
0.0
220
0.8962024032375964
230
0.4436454129495272
  0
LINE
  5
663
330
1F
100
AcDbEntity
  8
0
100
AcDbLine
 10
1053.103703574231
 20
763.026466903381
 30
-0.0000000000000465
 11
989.0290922006688
 21
741.0427547906298
 31
-0.0000000000000465
210
0.0
220
0.8962024032375964
230
0.4436454129495272
  0
LINE
  5
664
330
1F
100
AcDbEntity
  8
0
100
AcDbLine
 10
989.0290922006688
 20
741.0427547906298
 30
-0.0000000000000465
 11
989.0290922006688
 21
831.7832481184364
 31
-0.0000000000000465
210
0.0
220
0.8962024032375964
230
0.4436454129495272
  0
LINE
  5
665
330
1F
100
AcDbEntity
  8
0
100
AcDbLine
 10
987.3773442452774
 20
831.426783339292
 30
-0.0000000000000465
 11
987.3773442452774
 21
741.9903017047114
 31
-0.0000000000000465
210
0.0
220
0.8962024032375964
230
0.4436454129495272
  0
LINE
  5
666
330
1F
100
AcDbEntity
  8
0
100
AcDbLine
 10
1053.91049094711
 20
765.8270290997794
 30
0.00000000000009
 11
1053.103703574231
 21
766.2898532752193
 31
-0.0000000000000465
210
0.0
220
0.8962024032375964
230
0.4436454129495272
  0
LINE
  5
667
330
1F
100
AcDbEntity
  8
0
100
AcDbLine
 10
989.0290922006688
 20
741.0427547906298
 30
-0.0000000000000465
 11
1053.103703574231
 21
763.026466903381
 31
-0.0000000000000465
210
0.0
220
0.8962024032375964
230
0.4436454129495272
  0
ELLIPSE
  5
668
330
1F
100
AcDbEntity
  8
0
100
AcDbEllipse
 10
1050.350790315245
 20
764.6057117601818
 30
-0.0000000000000465
 11
4.499999999999999
 21
0.0000000000000001
 31
0.0000000000000001
210
0.0
220
0.0000000000000002
230
1.0
 40
0.4436454129495277
 41
5.370670678029954
 42
6.941467004824865
  0
ELLIPSE
  5
669
330
1F
100
AcDbEntity
  8
0
100
AcDbEllipse
 10
966.4552034769812
 20
753.9925626163919
 30
-0.0000000000000465
 11
-4.499999999999999
 21
-0.0000000000000001
 31
-0.0000000000000001
210
0.0
220
0.0000000000000002
230
1.0
 40
0.4436454129495277
 41
5.370670678029937
 42
6.941467004824838
  0
LINE
  5
66A
330
1F
100
AcDbEntity
  8
0
100
AcDbLine
 10
962.8955028451171
 20
752.7712452767961
 30
0.00000000000009
 11
982.7164783098186
 21
741.4006823078331
 31
-0.0000000000000465
210
0.0
220
0.8962024032375964
230
0.4436454129495272
  0
LINE
  5
66B
330
1F
100
AcDbEntity
  8
0
100
AcDbLine
 10
1053.103703574231
 20
760.6067204146389
 30
-0.0000000000000465
 11
989.0290922006688
 21
738.6230083018896
 31
-0.0000000000000465
210
0.0
220
0.8962024032375964
230
0.4436454129495272
  0
ELLIPSE
  5
66C
330
1F
100
AcDbEntity
  8
0
100
AcDbEllipse
 10
1050.350790315245
 20
762.1859652714398
 30
-0.0000000000001829
 11
4.499999999999999
 21
0.0000000000000001
 31
0.0000000000000001
210
0.0
220
0.0000000000000002
230
1.0
 40
0.4436454129495277
 41
5.370670678029954
 42
6.283185307179585
  0
ELLIPSE
  5
66D
330
1F
100
AcDbEntity
  8
0
100
AcDbEllipse
 10
966.4552034769812
 20
751.5728161276516
 30
-0.0000000000000465
 11
-4.499999999999999
 21
-0.0000000000000001
 31
-0.0000000000000001
210
0.0
220
0.0000000000000002
230
1.0
 40
0.4436454129495277
 41
-0.000000000000006
 42
0.6582816976452405
  0
LINE
  5
66E
330
1F
100
AcDbEntity
  8
0
100
AcDbLine
 10
982.7164783098186
 20
738.9809358190911
 30
-0.0000000000000465
 11
962.8955028451171
 21
750.351498788054
 31
-0.0000000000000465
210
0.0
220
0.8962024032375964
230
0.4436454129495272
  0
ELLIPSE
  5
66F
330
1F
100
AcDbEntity
  8
0
100
AcDbEllipse
 10
986.2761789416826
 20
740.2022531586887
 30
-0.0000000000000465
 11
4.499999999999999
 21
0.0000000000000001
 31
0.0000000000000001
210
0.0
220
0.0000000000000002
230
1.0
 40
0.4436454129495277
 41
3.799874351235053
 42
5.370670678029954
  0
ELLIPSE
  5
670
330
1F
100
AcDbEntity
  8
0
100
AcDbEllipse
 10
986.2761789416826
 20
742.6219996474307
 30
-0.0000000000000465
 11
-4.499999999999999
 21
-0.0000000000000001
 31
-0.0000000000000001
210
0.0
220
0.0000000000000002
230
1.0
 40
0.4436454129495277
 41
0.6582816976452495
 42
2.229078024440154
  0
LINE
  5
671
330
1F
100
AcDbEntity
  8
0
100
AcDbLine
 10
987.045085993718
 20
804.8152165264115
 30
0.00000000000009
 11
987.3773442452774
 21
804.9292128440288
 31
-0.0000000000000465
210
0.0
220
0.8962024032375964
230
0.4436454129495272
  0
LINE
  5
672
330
1F
100
AcDbEntity
  8
0
100
AcDbLine
 10
1017.406159868923
 20
854.6650069152134
 30
-0.0000000000000465
 11
1013.851563599632
 21
856.704147762805
 31
-0.0000000000000465
210
0.0
220
0.8962024032375964
230
0.4436454129495272
  0
LINE
  5
673
330
1F
100
AcDbEntity
  8
0
100
AcDbLine
 10
1012.612752633088
 20
856.8733124293782
 30
-0.0000000000000465
 11
1012.612752633088
 21
853.0204103667079
 31
-0.0000000000000465
210
0.0
220
0.8962024032375964
230
0.4436454129495272
  0
LINE
  5
674
330
1F
100
AcDbEntity
  8
0
100
AcDbLine
 10
965.3540381733863
 20
754.6242605591129
 30
-0.0000000000000465
 11
963.702290217995
 21
755.5718074731927
 31
-0.0000000000000465
210
0.0
220
0.8962024032375964
230
0.4436454129495272
  0
LINE
  5
675
330
1F
100
AcDbEntity
  8
0
100
AcDbLine
 10
963.702290217995
 20
755.5718074731927
 30
-0.0000000000000465
 11
963.702290217995
 21
843.0489144291611
 31
-0.0000000000000465
210
0.0
220
0.8962024032375964
230
0.4436454129495272
  0
LINE
  5
676
330
1F
100
AcDbEntity
  8
0
100
AcDbLine
 10
965.3540381733863
 20
754.6242605591129
 30
-0.0000000000000465
 11
966.6891435330461
 21
755.0823292268384
 31
-0.0000000000000465
210
0.0
220
0.8962024032375964
230
0.4436454129495272
  0
LINE
  5
677
330
1F
100
AcDbEntity
  8
0
100
AcDbLine
 10
987.045085993718
 20
762.0663618919794
 30
0.00000000000009
 11
987.3773442452774
 21
762.1803582095968
 31
-0.0000000000000465
210
0.0
220
0.8962024032375964
230
0.4436454129495272
  0
LINE
  5
678
330
1F
100
AcDbEntity
  8
0
100
AcDbLine
 10
965.3540381733863
 20
842.1013675150813
 30
-0.0000000000000465
 11
965.3540381733863
 21
754.6242605591129
 31
-0.0000000000000465
210
0.0
220
0.8962024032375964
230
0.4436454129495272
  0
LINE
  5
679
330
1F
100
AcDbEntity
  8
0
100
AcDbLine
 10
987.045085993718
 20
745.4442923875254
 30
0.00000000000009
 11
987.3773442452774
 21
745.2536880765479
 31
-0.0000000000000465
210
0.0
220
0.8962024032375964
230
0.4436454129495272
  0
ELLIPSE
  5
67A
330
1F
100
AcDbEntity
  8
0
100
AcDbEllipse
 10
979.9253918411967
 20
812.0387160973301
 30
-0.0000000000000465
 11
-4.198556101673789
 21
12.23728045405097
 31
-0.0000000000000008
210
0.0000000000000001
220
0.0000000000000001
230
1.0
 40
0.548259439690723
 41
3.701190177637934
 42
3.809603617108665
  0
ELLIPSE
  5
67B
330
1F
100
AcDbEntity
  8
0
100
AcDbEllipse
 10
979.9253918411967
 20
812.0387160973301
 30
-0.0000000000000465
 11
-4.198556101673789
 21
12.23728045405097
 31
-0.0000000000000008
210
0.0000000000000001
220
0.0000000000000001
230
1.0
 40
0.548259439690723
 41
4.496839293541307
 42
4.605252733012042
  0
ELLIPSE
  5
67C
330
1F
100
AcDbEntity
  8
0
100
AcDbEllipse
 10
979.9253918411967
 20
769.2898614628981
 30
-0.0000000000000465
 11
-4.198556101673789
 21
12.23728045405097
 31
-0.0000000000000008
210
0.0000000000000001
220
0.0000000000000001
230
1.0
 40
0.548259439690723
 41
3.701190177637929
 42
3.80960361710867
  0
ELLIPSE
  5
67D
330
1F
100
AcDbEntity
  8
0
100
AcDbEllipse
 10
979.9253918411967
 20
769.2898614628981
 30
-0.0000000000000465
 11
-4.198556101673789
 21
12.23728045405097
 31
-0.0000000000000008
210
0.0000000000000001
220
0.0000000000000001
230
1.0
 40
0.548259439690723
 41
4.496839293541308
 42
4.605252733012044
  0
LINE
  5
67E
330
1F
100
AcDbEntity
  8
0
100
AcDbLine
 10
987.045085993718
 20
831.2312825733922
 30
-0.0000000000000465
 11
987.045085993718
 21
744.5237000601543
 31
-0.0000000000000465
210
0.0
220
0.8962024032375964
230
0.4436454129495272
  0
ELLIPSE
  5
67F
330
1F
100
AcDbEntity
  8
0
100
AcDbEllipse
 10
986.3568576789701
 20
831.6260937875927
 30
-0.0000000000000465
 11
0.3650918349281552
 21
-1.064111343830518
 31
0.0000000000000003
210
0.0
220
0.0000000000000003
230
1.0
 40
0.5482594396907229
 41
1.011628801735203
 42
1.169585490530634
  0
LINE
  5
680
330
1F
100
AcDbEntity
  8
0
100
AcDbLine
 10
966.9084798344728
 20
754.9039317013344
 30
-0.0000000000000465
 11
986.1788726473777
 21
743.8492177037338
 31
-0.0000000000000465
210
0.0
220
0.8962024032375964
230
0.4436454129495272
  0
ELLIPSE
  5
681
330
1F
100
AcDbEntity
  8
0
100
AcDbEllipse
 10
966.9084798344728
 20
755.9121594049762
 30
-0.0000000000000465
 11
0.3650918349281552
 21
-1.064111343830518
 31
0.0000000000000003
210
0.0
220
0.0000000000000003
230
1.0
 40
0.5482594396907229
 41
4.153221455325001
 42
5.724017782119878
  0
LINE
  5
682
330
1F
100
AcDbEntity
  8
0
100
AcDbLine
 10
966.2202515197266
 20
841.6044528492699
 30
-0.0000000000000465
 11
966.2202515197266
 21
756.3069706191769
 31
-0.0000000000000465
210
0.0
220
0.8962024032375964
230
0.4436454129495272
  0
ELLIPSE
  5
683
330
1F
100
AcDbEntity
  8
0
100
AcDbEllipse
 10
986.1788726473777
 20
831.5650279206135
 30
-0.0000000000000465
 11
-0.3650918349281552
 21
1.064111343830518
 31
-0.0000000000000003
210
0.0
220
0.0000000000000003
230
1.0
 40
0.5482594396907229
 41
4.153221455325018
 42
4.357118858910471
  0
LINE
  5
684
330
1F
100
AcDbEntity
  8
0
100
AcDbLine
 10
986.8671009621237
 20
744.4626341931749
 30
-0.0000000000000465
 11
986.8671009621255
 21
831.1702167064128
 31
-0.0000000000000465
210
0.0
220
0.8962024032375964
230
0.4436454129495272
  0
ELLIPSE
  5
685
330
1F
100
AcDbEntity
  8
0
100
AcDbEllipse
 10
986.1788726473777
 20
744.8574454073756
 30
-0.0000000000000465
 11
0.3650918349281552
 21
-1.064111343830518
 31
0.0000000000000003
210
0.0
220
0.0000000000000003
230
1.0
 40
0.5482594396907229
 41
5.724017782119864
 42
7.294814108914752
  0
ELLIPSE
  5
686
330
1F
100
AcDbEntity
  8
0
100
AcDbEllipse
 10
986.3568576789701
 20
744.9185112743549
 30
-0.0000000000000465
 11
0.3650918349281552
 21
-1.064111343830518
 31
0.0000000000000003
210
0.0
220
0.0000000000000003
230
1.0
 40
0.5482594396907229
 41
-0.0000000000000327
 42
1.011628801735203
  0
LINE
  5
687
330
1F
100
AcDbEntity
  8
0
100
AcDbLine
 10
1054.850790315245
 20
857.7659515767287
 30
-0.0000000000000465
 11
1054.850790315245
 21
855.3462050879884
 31
-0.0000000000000465
210
0.0
220
0.8962024032375964
230
0.4436454129495272
  0
LINE
  5
688
330
1F
100
AcDbEntity
  8
0
100
AcDbLine
 10
961.9552034769812
 20
847.1528024329405
 30
-0.0000000000000465
 11
961.9552034769812
 21
844.7330559441985
 31
-0.0000000000000465
210
0.0
220
0.8962024032375964
230
0.4436454129495272
  0
LINE
  5
689
330
1F
100
AcDbEntity
  8
0
100
AcDbLine
 10
1054.850790315245
 20
762.1859652714398
 30
-0.0000000000000465
 11
1054.850790315245
 21
764.6057117601818
 31
-0.0000000000000465
210
0.0
220
0.8962024032375964
230
0.4436454129495272
  0
LINE
  5
68A
330
1F
100
AcDbEntity
  8
0
100
AcDbLine
 10
961.9552034769812
 20
751.5728161276516
 30
-0.0000000000000465
 11
961.9552034769812
 21
753.9925626163919
 31
-0.0000000000000465
210
0.0
220
0.8962024032375964
230
0.4436454129495272
  0
LINE
  5
68B
330
1F
100
AcDbEntity
  8
0
100
AcDbLine
 10
986.7219495138987
 20
743.8543999305244
 30
-0.0000000000000465
 11
986.5439644823062
 21
743.7933340635451
 31
-0.0000000000000465
210
0.0
220
0.8962024032375964
230
0.4436454129495272
  0
ELLIPSE
  5
68C
330
1F
100
AcDbEntity
  8
0
100
AcDbEllipse
 10
986.2761789416826
 20
833.3624929752373
 30
-0.0000000000000465
 11
-4.500000000000102
 21
0.0000000000000402
 31
-0.0000000000000001
210
0.0
220
0.0000000000000002
230
1.0
 40
0.4436454129495204
 41
0.6582816976452582
 42
1.699297518118321
  0
LINE
  5
68D
330
1F
100
AcDbEntity
  8
0
100
AcDbLine
 10
966.2202515197266
 20
841.6044528492699
 30
-0.0000000000000465
 11
982.7164783098186
 21
832.1411756356397
 31
-0.0000000000000465
210
0.0
220
0.8962024032375964
230
0.4436454129495272
  0
LINE
  5
68E
330
1F
100
AcDbEntity
  8
0
100
AcDbLine
 10
978.6418610265998
 20
911.0956907827228
 30
0.0
 11
978.6418610265998
 21
908.1348876737489
 31
0.0
  0
LWPOLYLINE
  5
68F
330
1F
100
AcDbEntity
  8
0
100
AcDbPolyline
 90
        6
 70
     1
 43
0.0
 10
1013.23690204331
 20
890.2064619481922
 10
1013.23690204331
 20
904.384887673749
 42
-0.4142135623730951
 10
1016.986902043309
 20
908.1348876737489
 10
1020.774147295523
 20
908.1348876737489
 42
-0.4142135623730951
 10
1024.524147295523
 20
904.384887673749
 10
1024.524147295523
 20
890.2064619481922
  0
LINE
  5
690
330
1F
100
AcDbEntity
  8
0
100
AcDbLine
 10
1018.880524669418
 20
911.0956907827228
 30
0.0
 11
1018.880524669416
 21
908.1348876737489
 31
0.0
  0
LINE
  5
691
330
1F
100
AcDbEntity
  8
0
100
AcDbLine
 10
1033.880524669418
 20
926.0956907827226
 30
0.0
 11
1117.707610577742
 21
926.0956907827226
 31
0.0
  0
ARC
  5
692
330
1F
100
AcDbEntity
  8
0
100
AcDbCircle
 10
1033.880524669418
 20
911.0956907827228
 30
0.0
 40
15.0
100
AcDbArc
 50
90.0
 51
180.0
  0
LINE
  5
693
330
1F
100
AcDbEntity
  8
0
100
AcDbLine
 10
1132.707610577742
 20
911.0956907827228
 30
0.0
 11
1132.70761057774
 21
848.8901633214597
 31
0.0
  0
ARC
  5
694
330
1F
100
AcDbEntity
  8
0
100
AcDbCircle
 10
1117.707610577742
 20
911.0956907827228
 30
0.0
 40
15.0
100
AcDbArc
 50
0.0
 51
90.0
  0
LINE
  5
695
330
1F
100
AcDbEntity
  8
0
100
AcDbLine
 10
1147.70761057774
 20
833.8901633214597
 30
0.0
 11
1173.600358430368
 21
833.8901633214597
 31
0.0
  0
ARC
  5
696
330
1F
100
AcDbEntity
  8
0
100
AcDbCircle
 10
1147.70761057774
 20
848.8901633214597
 30
0.0
 40
15.0
100
AcDbArc
 50
180.0
 51
270.0
  0
LWPOLYLINE
  5
697
330
1F
100
AcDbEntity
  8
0
100
AcDbPolyline
 90
        6
 70
     1
 43
0.0
 10
1191.528784155925
 20
828.246540695353
 10
1177.350358430368
 20
828.246540695353
 42
-0.4142135623730951
 10
1173.600358430368
 20
831.996540695353
 10
1173.600358430368
 20
835.7837859475663
 42
-0.4142135623730951
 10
1177.350358430368
 20
839.5337859475663
 10
1191.528784155925
 20
839.5337859475663
  0
ARC
  5
698
330
1F
100
AcDbEntity
  8
0
100
AcDbCircle
 10
999.8468505261033
 20
584.3508730702002
 30
0.0
 40
15.0
100
AcDbArc
 50
0.0
 51
90.0
  0
LWPOLYLINE
  5
699
330
1F
100
AcDbEntity
  8
0
100
AcDbPolyline
 90
        6
 70
     1
 43
0.0
 10
1009.203227899996
 20
563.4616442356697
 10
1009.203227899996
 20
577.6400699612264
 42
-0.4142135623730951
 10
1012.953227899997
 20
581.3900699612264
 10
1016.74047315221
 20
581.3900699612264
 42
-0.4142135623730951
 10
1020.49047315221
 20
577.6400699612264
 10
1020.49047315221
 20
563.4616442356697
  0
LINE
  5
69A
330
1F
100
AcDbEntity
  8
0
100
AcDbLine
 10
1025.234081700172
 20
505.038430405914
 30
-0.0000000000000465
 11
1089.308693073734
 21
527.0221425186652
 31
-0.0000000000000465
210
0.0
220
0.8962024032375964
230
0.4436454129495272
  0
ELLIPSE
  5
69B
330
1F
100
AcDbEntity
  8
0
100
AcDbEllipse
 10
1086.555779814748
 20
528.6013873754661
 30
-0.0000000000000465
 11
4.499999999999999
 21
0.0000000000000001
 31
0.0000000000000001
210
0.0
220
0.0000000000000002
230
1.0
 40
0.4436454129495277
 41
5.370670678029942
 42
6.283185307179594
  0
ELLIPSE
  5
69C
330
1F
100
AcDbEntity
  8
0
100
AcDbEllipse
 10
1002.660192976484
 20
517.988238231676
 30
-0.0000000000000465
 11
-4.499999999999999
 21
-0.0000000000000001
 31
-0.0000000000000001
210
0.0
220
0.0000000000000002
230
1.0
 40
0.4436454129495277
 41
-0.000000000000006
 42
0.6582816976452495
  0
ELLIPSE
  5
69D
330
1F
100
AcDbEntity
  8
0
100
AcDbEllipse
 10
1002.660192976484
 20
520.407984720418
 30
-0.0000000000001829
 11
-4.499999999999999
 21
-0.0000000000000001
 31
-0.0000000000000001
210
0.0
220
0.0000000000000002
230
1.0
 40
0.4436454129495277
 41
5.370670678029949
 42
6.941467004824835
  0
LINE
  5
69E
330
1F
100
AcDbEntity
  8
0
100
AcDbLine
 10
999.9072797174965
 20
521.9872295772189
 30
-0.0000000000000465
 11
1063.981891091059
 21
543.9709416899683
 31
-0.0000000000000465
210
0.0
220
0.8962024032375964
230
0.4436454129495272
  0
ELLIPSE
  5
69F
330
1F
100
AcDbEntity
  8
0
100
AcDbEllipse
 10
1066.734804350047
 20
542.3916968331692
 30
-0.0000000000000465
 11
4.499999999999999
 21
0.0000000000000001
 31
0.0000000000000001
210
0.0
220
0.0000000000000002
230
1.0
 40
0.4436454129495277
 41
0.6582816976452542
 42
2.229078024440156
  0
LINE
  5
6A0
330
1F
100
AcDbEntity
  8
0
100
AcDbLine
 10
1070.294504981911
 20
543.613014172765
 30
-0.0000000000000465
 11
1090.115480446612
 21
532.2424512038038
 31
-0.0000000000000465
210
0.0
220
0.8962024032375964
230
0.4436454129495272
  0
ELLIPSE
  5
6A1
330
1F
100
AcDbEntity
  8
0
100
AcDbEllipse
 10
1086.555779814748
 20
531.0211338642062
 30
-0.0000000000001829
 11
4.499999999999999
 21
0.0000000000000001
 31
0.0000000000000001
210
0.0
220
0.0000000000000002
230
1.0
 40
0.4436454129495277
 41
5.370670678029942
 42
6.941467004824844
  0
LINE
  5
6A2
330
1F
100
AcDbEntity
  8
0
100
AcDbLine
 10
1089.308693073734
 20
529.4418890074072
 30
-0.0000000000000465
 11
1025.234081700172
 21
507.458176894656
 31
-0.0000000000000465
210
0.0
220
0.8962024032375964
230
0.4436454129495272
  0
LINE
  5
6A3
330
1F
100
AcDbEntity
  8
0
100
AcDbLine
 10
999.1004923446206
 20
516.7669208920784
 30
-0.0000000000000465
 11
1018.921467809322
 21
505.3963579231172
 31
-0.0000000000000465
210
0.0
220
0.8962024032375964
230
0.4436454129495272
  0
LINE
  5
6A4
330
1F
100
AcDbEntity
  8
0
100
AcDbLine
 10
1018.921467809322
 20
507.8161044118593
 30
-0.0000000000000465
 11
999.1004923446206
 21
519.1866673808204
 31
-0.0000000000000465
210
0.0
220
0.8962024032375964
230
0.4436454129495272
  0
ELLIPSE
  5
6A5
330
1F
100
AcDbEntity
  8
0
100
AcDbEllipse
 10
1022.481168441186
 20
509.0374217514569
 30
-0.0000000000000465
 11
-4.499999999999999
 21
-0.0000000000000001
 31
-0.0000000000000001
210
0.0
220
0.0000000000000002
230
1.0
 40
0.4436454129495277
 41
0.6582816976452611
 42
2.229078024440165
  0
ELLIPSE
  5
6A6
330
1F
100
AcDbEntity
  8
0
100
AcDbEllipse
 10
1022.481168441186
 20
506.6176752627149
 30
-0.0000000000000465
 11
4.499999999999999
 21
0.0000000000000001
 31
0.0000000000000001
210
0.0
220
0.0000000000000002
230
1.0
 40
0.4436454129495277
 41
3.799874351235042
 42
5.370670678029947
  0
LINE
  5
6A7
330
1F
100
AcDbEntity
  8
0
100
AcDbLine
 10
1055.360682773888
 20
528.5204462763255
 30
-0.0000000000000465
 11
1035.782329298633
 21
521.8032009085406
 31
-0.0000000000000465
210
0.0
220
0.8962024032375964
230
0.4436454129495272
  0
ELLIPSE
  5
6A8
330
1F
100
AcDbEntity
  8
0
100
AcDbEllipse
 10
1054.672454459142
 20
528.9152574905243
 30
-0.0000000000001829
 11
1.124999999999999
 21
0.0
 31
0.0
210
0.0
220
0.0000000000000002
230
1.0
 40
0.4436454129495277
 41
5.370670678029967
 42
6.941467004824837
  0
LINE
  5
6A9
330
1F
100
AcDbEntity
  8
0
100
AcDbLine
 10
1034.204175825921
 20
521.892682787841
 30
-0.0000000000000465
 11
1028.698349307949
 21
525.0511725014408
 31
-0.0000000000000465
210
0.0
220
0.8962024032375964
230
0.4436454129495272
  0
ELLIPSE
  5
6AA
330
1F
100
AcDbEntity
  8
0
100
AcDbEllipse
 10
1035.094100983887
 20
522.1980121227394
 30
-0.0000000000001829
 11
-1.124999999999999
 21
0.0
 31
0.0
210
0.0
220
0.0000000000000002
230
1.0
 40
0.4436454129495277
 41
0.6582816976452791
 42
2.229078024440147
  0
LINE
  5
6AB
330
1F
100
AcDbEntity
  8
0
100
AcDbLine
 10
1053.611149368427
 20
527.9201892026909
 30
-0.0000000000000465
 11
1050.056553099136
 21
529.9593300502825
 31
-0.0000000000000465
210
0.0
220
0.8962024032375964
230
0.4436454129495272
  0
LINE
  5
6AC
330
1F
100
AcDbEntity
  8
0
100
AcDbLine
 10
1050.056553099136
 20
532.3790765390246
 30
-0.0000000000000465
 11
1055.562379617108
 21
529.2205868254247
 31
-0.0000000000000465
210
0.0
220
0.8962024032375964
230
0.4436454129495272
  0
ELLIPSE
  5
6AD
330
1F
100
AcDbEntity
  8
0
100
AcDbEllipse
 10
1049.16662794117
 20
529.6540007153841
 30
-0.0000000000001829
 11
-1.124999999999999
 21
0.0
 31
0.0
210
0.0
220
0.0000000000000002
230
1.0
 40
0.4436454129495277
 41
3.799874351235044
 42
5.370670678029935
  0
ELLIPSE
  5
6AE
330
1F
100
AcDbEntity
  8
0
100
AcDbEllipse
 10
1049.16662794117
 20
532.0737472041261
 30
-0.0000000000001829
 11
1.124999999999999
 21
0.0
 31
0.0
210
0.0
220
0.0000000000000002
230
1.0
 40
0.4436454129495277
 41
0.6582816976452519
 42
2.229078024440171
  0
LINE
  5
6AF
330
1F
100
AcDbEntity
  8
0
100
AcDbLine
 10
1048.478399626424
 20
530.0488119295847
 30
-0.0000000000000465
 11
1030.64957955663
 21
523.9318236354326
 31
-0.0000000000000465
210
0.0
220
0.8962024032375964
230
0.4436454129495272
  0
LINE
  5
6B0
330
1F
100
AcDbEntity
  8
0
100
AcDbLine
 10
1028.900046151169
 20
525.75131305054
 30
-0.0000000000000465
 11
1048.478399626424
 21
532.4685584183249
 31
-0.0000000000000465
210
0.0
220
0.8962024032375964
230
0.4436454129495272
  0
ELLIPSE
  5
6B1
330
1F
100
AcDbEntity
  8
0
100
AcDbEllipse
 10
1029.588274465915
 20
525.3565018363412
 30
-0.0000000000000465
 11
-1.124999999999999
 21
0.0
 31
0.0
210
0.0
220
0.0000000000000002
230
1.0
 40
0.4436454129495277
 41
5.370670678029935
 42
6.941467004824828
  0
LINE
  5
6B2
330
1F
100
AcDbEntity
  8
0
100
AcDbLine
 10
1023.582333744781
 20
415.2454839921889
 30
-0.0000000000000465
 11
1025.234081700172
 21
414.2979370781073
 31
-0.0000000000000465
210
0.0
220
0.8962024032375964
230
0.4436454129495272
  0
LINE
  5
6B3
330
1F
100
AcDbEntity
  8
0
100
AcDbLine
 10
1025.234081700172
 20
505.038430405914
 30
-0.0000000000000465
 11
1089.308693073734
 21
527.0221425186652
 31
-0.0000000000000465
210
0.0
220
0.8962024032375964
230
0.4436454129495272
  0
LINE
  5
6B4
330
1F
100
AcDbEntity
  8
0
100
AcDbLine
 10
1089.308693073734
 20
527.0221425186652
 30
-0.0000000000000465
 11
1089.308693073734
 21
436.2816491908585
 31
-0.0000000000000465
210
0.0
220
0.8962024032375964
230
0.4436454129495272
  0
LINE
  5
6B5
330
1F
100
AcDbEntity
  8
0
100
AcDbLine
 10
1089.308693073734
 20
436.2816491908585
 30
-0.0000000000000465
 11
1025.234081700172
 21
414.2979370781073
 31
-0.0000000000000465
210
0.0
220
0.8962024032375964
230
0.4436454129495272
  0
LINE
  5
6B6
330
1F
100
AcDbEntity
  8
0
100
AcDbLine
 10
1025.234081700172
 20
414.2979370781073
 30
-0.0000000000000465
 11
1025.234081700172
 21
505.038430405914
 31
-0.0000000000000465
210
0.0
220
0.8962024032375964
230
0.4436454129495272
  0
LINE
  5
6B7
330
1F
100
AcDbEntity
  8
0
100
AcDbLine
 10
1023.582333744781
 20
504.6819656267695
 30
-0.0000000000000465
 11
1023.582333744781
 21
415.2454839921889
 31
-0.0000000000000465
210
0.0
220
0.8962024032375964
230
0.4436454129495272
  0
LINE
  5
6B8
330
1F
100
AcDbEntity
  8
0
100
AcDbLine
 10
1090.115480446612
 20
439.082211387257
 30
0.00000000000009
 11
1089.308693073734
 21
439.5450355626969
 31
-0.0000000000000465
210
0.0
220
0.8962024032375964
230
0.4436454129495272
  0
LINE
  5
6B9
330
1F
100
AcDbEntity
  8
0
100
AcDbLine
 10
1025.234081700172
 20
414.2979370781073
 30
-0.0000000000000465
 11
1089.308693073734
 21
436.2816491908585
 31
-0.0000000000000465
210
0.0
220
0.8962024032375964
230
0.4436454129495272
  0
ELLIPSE
  5
6BA
330
1F
100
AcDbEntity
  8
0
100
AcDbEllipse
 10
1086.555779814748
 20
437.8608940476594
 30
-0.0000000000000465
 11
4.499999999999999
 21
0.0000000000000001
 31
0.0000000000000001
210
0.0
220
0.0000000000000002
230
1.0
 40
0.4436454129495277
 41
5.370670678029954
 42
6.941467004824865
  0
ELLIPSE
  5
6BB
330
1F
100
AcDbEntity
  8
0
100
AcDbEllipse
 10
1002.660192976484
 20
427.2477449038693
 30
-0.0000000000000465
 11
-4.499999999999999
 21
-0.0000000000000001
 31
-0.0000000000000001
210
0.0
220
0.0000000000000002
230
1.0
 40
0.4436454129495277
 41
5.370670678029937
 42
6.941467004824838
  0
LINE
  5
6BC
330
1F
100
AcDbEntity
  8
0
100
AcDbLine
 10
999.1004923446206
 20
426.0264275642736
 30
0.00000000000009
 11
1018.921467809322
 21
414.6558645953105
 31
-0.0000000000000465
210
0.0
220
0.8962024032375964
230
0.4436454129495272
  0
LINE
  5
6BD
330
1F
100
AcDbEntity
  8
0
100
AcDbLine
 10
1089.308693073734
 20
433.8619027021165
 30
-0.0000000000000465
 11
1025.234081700172
 21
411.8781905893671
 31
-0.0000000000000465
210
0.0
220
0.8962024032375964
230
0.4436454129495272
  0
ELLIPSE
  5
6BE
330
1F
100
AcDbEntity
  8
0
100
AcDbEllipse
 10
1086.555779814748
 20
435.4411475589173
 30
-0.0000000000001829
 11
4.499999999999999
 21
0.0000000000000001
 31
0.0000000000000001
210
0.0
220
0.0000000000000002
230
1.0
 40
0.4436454129495277
 41
5.370670678029954
 42
6.283185307179585
  0
ELLIPSE
  5
6BF
330
1F
100
AcDbEntity
  8
0
100
AcDbEllipse
 10
1002.660192976484
 20
424.8279984151292
 30
-0.0000000000000465
 11
-4.499999999999999
 21
-0.0000000000000001
 31
-0.0000000000000001
210
0.0
220
0.0000000000000002
230
1.0
 40
0.4436454129495277
 41
-0.000000000000006
 42
0.6582816976452405
  0
LINE
  5
6C0
330
1F
100
AcDbEntity
  8
0
100
AcDbLine
 10
1018.921467809322
 20
412.2361181065685
 30
-0.0000000000000465
 11
999.1004923446206
 21
423.6066810755316
 31
-0.0000000000000465
210
0.0
220
0.8962024032375964
230
0.4436454129495272
  0
ELLIPSE
  5
6C1
330
1F
100
AcDbEntity
  8
0
100
AcDbEllipse
 10
1022.481168441186
 20
413.4574354461661
 30
-0.0000000000000465
 11
4.499999999999999
 21
0.0000000000000001
 31
0.0000000000000001
210
0.0
220
0.0000000000000002
230
1.0
 40
0.4436454129495277
 41
3.799874351235053
 42
5.370670678029954
  0
ELLIPSE
  5
6C2
330
1F
100
AcDbEntity
  8
0
100
AcDbEllipse
 10
1022.481168441186
 20
415.8771819349082
 30
-0.0000000000000465
 11
-4.499999999999999
 21
-0.0000000000000001
 31
-0.0000000000000001
210
0.0
220
0.0000000000000002
230
1.0
 40
0.4436454129495277
 41
0.6582816976452495
 42
2.229078024440154
  0
LINE
  5
6C3
330
1F
100
AcDbEntity
  8
0
100
AcDbLine
 10
1023.250075493219
 20
478.070398813889
 30
0.00000000000009
 11
1023.582333744781
 21
478.1843951315064
 31
-0.0000000000000465
210
0.0
220
0.8962024032375964
230
0.4436454129495272
  0
LINE
  5
6C4
330
1F
100
AcDbEntity
  8
0
100
AcDbLine
 10
1053.611149368427
 20
527.9201892026909
 30
-0.0000000000000465
 11
1050.056553099136
 21
529.9593300502825
 31
-0.0000000000000465
210
0.0
220
0.8962024032375964
230
0.4436454129495272
  0
LINE
  5
6C5
330
1F
100
AcDbEntity
  8
0
100
AcDbLine
 10
1048.817742132592
 20
530.1284947168556
 30
-0.0000000000000465
 11
1048.817742132592
 21
526.2755926541855
 31
-0.0000000000000465
210
0.0
220
0.8962024032375964
230
0.4436454129495272
  0
LINE
  5
6C6
330
1F
100
AcDbEntity
  8
0
100
AcDbLine
 10
1001.55902767289
 20
427.8794428465904
 30
-0.0000000000000465
 11
999.9072797174965
 21
428.8269897606702
 31
-0.0000000000000465
210
0.0
220
0.8962024032375964
230
0.4436454129495272
  0
LINE
  5
6C7
330
1F
100
AcDbEntity
  8
0
100
AcDbLine
 10
999.9072797174965
 20
428.8269897606702
 30
-0.0000000000000465
 11
999.9072797174965
 21
516.3040967166385
 31
-0.0000000000000465
210
0.0
220
0.8962024032375964
230
0.4436454129495272
  0
LINE
  5
6C8
330
1F
100
AcDbEntity
  8
0
100
AcDbLine
 10
1001.55902767289
 20
427.8794428465904
 30
-0.0000000000000465
 11
1002.894133032549
 21
428.3375115143159
 31
-0.0000000000000465
210
0.0
220
0.8962024032375964
230
0.4436454129495272
  0
LINE
  5
6C9
330
1F
100
AcDbEntity
  8
0
100
AcDbLine
 10
1023.250075493219
 20
435.3215441794569
 30
0.00000000000009
 11
1023.582333744781
 21
435.4355404970744
 31
-0.0000000000000465
210
0.0
220
0.8962024032375964
230
0.4436454129495272
  0
LINE
  5
6CA
330
1F
100
AcDbEntity
  8
0
100
AcDbLine
 10
1001.55902767289
 20
515.3565498025588
 30
-0.0000000000000465
 11
1001.55902767289
 21
427.8794428465904
 31
-0.0000000000000465
210
0.0
220
0.8962024032375964
230
0.4436454129495272
  0
LINE
  5
6CB
330
1F
100
AcDbEntity
  8
0
100
AcDbLine
 10
1023.250075493219
 20
418.699474675003
 30
0.00000000000009
 11
1023.582333744781
 21
418.5088703640254
 31
-0.0000000000000465
210
0.0
220
0.8962024032375964
230
0.4436454129495272
  0
ELLIPSE
  5
6CC
330
1F
100
AcDbEntity
  8
0
100
AcDbEllipse
 10
1016.1303813407
 20
485.2938983848076
 30
-0.0000000000000465
 11
-4.198556101673789
 21
12.23728045405097
 31
-0.0000000000000008
210
0.0000000000000001
220
0.0000000000000001
230
1.0
 40
0.548259439690723
 41
3.701190177637934
 42
3.809603617108665
  0
ELLIPSE
  5
6CD
330
1F
100
AcDbEntity
  8
0
100
AcDbEllipse
 10
1016.1303813407
 20
485.2938983848076
 30
-0.0000000000000465
 11
-4.198556101673789
 21
12.23728045405097
 31
-0.0000000000000008
210
0.0000000000000001
220
0.0000000000000001
230
1.0
 40
0.548259439690723
 41
4.496839293541307
 42
4.605252733012042
  0
ELLIPSE
  5
6CE
330
1F
100
AcDbEntity
  8
0
100
AcDbEllipse
 10
1016.1303813407
 20
442.5450437503756
 30
-0.0000000000000465
 11
-4.198556101673789
 21
12.23728045405097
 31
-0.0000000000000008
210
0.0000000000000001
220
0.0000000000000001
230
1.0
 40
0.548259439690723
 41
3.701190177637929
 42
3.80960361710867
  0
ELLIPSE
  5
6CF
330
1F
100
AcDbEntity
  8
0
100
AcDbEllipse
 10
1016.1303813407
 20
442.5450437503756
 30
-0.0000000000000465
 11
-4.198556101673789
 21
12.23728045405097
 31
-0.0000000000000008
210
0.0000000000000001
220
0.0000000000000001
230
1.0
 40
0.548259439690723
 41
4.496839293541308
 42
4.605252733012044
  0
LINE
  5
6D0
330
1F
100
AcDbEntity
  8
0
100
AcDbLine
 10
1023.250075493219
 20
504.4864648608696
 30
-0.0000000000000465
 11
1023.250075493219
 21
417.7788823476317
 31
-0.0000000000000465
210
0.0
220
0.8962024032375964
230
0.4436454129495272
  0
ELLIPSE
  5
6D1
330
1F
100
AcDbEntity
  8
0
100
AcDbEllipse
 10
1022.561847178473
 20
504.8812760750703
 30
-0.0000000000000465
 11
0.3650918349281552
 21
-1.064111343830518
 31
0.0000000000000003
210
0.0
220
0.0000000000000003
230
1.0
 40
0.5482594396907229
 41
1.011628801735203
 42
1.169585490530634
  0
LINE
  5
6D2
330
1F
100
AcDbEntity
  8
0
100
AcDbLine
 10
1003.113469333976
 20
428.159113988812
 30
-0.0000000000000465
 11
1022.383862146881
 21
417.1043999912114
 31
-0.0000000000000465
210
0.0
220
0.8962024032375964
230
0.4436454129495272
  0
ELLIPSE
  5
6D3
330
1F
100
AcDbEntity
  8
0
100
AcDbEllipse
 10
1003.113469333976
 20
429.1673416924537
 30
-0.0000000000000465
 11
0.3650918349281552
 21
-1.064111343830518
 31
0.0000000000000003
210
0.0
220
0.0000000000000003
230
1.0
 40
0.5482594396907229
 41
4.153221455325001
 42
5.724017782119878
  0
LINE
  5
6D4
330
1F
100
AcDbEntity
  8
0
100
AcDbLine
 10
1002.425241019228
 20
514.8596351367474
 30
-0.0000000000000465
 11
1002.425241019228
 21
429.5621529066544
 31
-0.0000000000000465
210
0.0
220
0.8962024032375964
230
0.4436454129495272
  0
ELLIPSE
  5
6D5
330
1F
100
AcDbEntity
  8
0
100
AcDbEllipse
 10
1022.383862146881
 20
504.8202102080909
 30
-0.0000000000000465
 11
-0.3650918349281552
 21
1.064111343830518
 31
-0.0000000000000003
210
0.0
220
0.0000000000000003
230
1.0
 40
0.5482594396907229
 41
4.153221455325018
 42
4.357118858910471
  0
LINE
  5
6D6
330
1F
100
AcDbEntity
  8
0
100
AcDbLine
 10
1023.072090461627
 20
417.7178164806524
 30
-0.0000000000000465
 11
1023.072090461627
 21
504.4253989938903
 31
-0.0000000000000465
210
0.0
220
0.8962024032375964
230
0.4436454129495272
  0
ELLIPSE
  5
6D7
330
1F
100
AcDbEntity
  8
0
100
AcDbEllipse
 10
1022.383862146881
 20
418.1126276948531
 30
-0.0000000000000465
 11
0.3650918349281552
 21
-1.064111343830518
 31
0.0000000000000003
210
0.0
220
0.0000000000000003
230
1.0
 40
0.5482594396907229
 41
5.724017782119864
 42
7.294814108914752
  0
ELLIPSE
  5
6D8
330
1F
100
AcDbEntity
  8
0
100
AcDbEllipse
 10
1022.561847178473
 20
418.1736935618324
 30
-0.0000000000000465
 11
0.3650918349281552
 21
-1.064111343830518
 31
0.0000000000000003
210
0.0
220
0.0000000000000003
230
1.0
 40
0.5482594396907229
 41
-0.0000000000000327
 42
1.011628801735203
  0
LINE
  5
6D9
330
1F
100
AcDbEntity
  8
0
100
AcDbLine
 10
1091.055779814748
 20
531.0211338642062
 30
-0.0000000000000465
 11
1091.055779814748
 21
528.6013873754661
 31
-0.0000000000000465
210
0.0
220
0.8962024032375964
230
0.4436454129495272
  0
LINE
  5
6DA
330
1F
100
AcDbEntity
  8
0
100
AcDbLine
 10
998.1601929764845
 20
520.407984720418
 30
-0.0000000000000465
 11
998.1601929764845
 21
517.988238231676
 31
-0.0000000000000465
210
0.0
220
0.8962024032375964
230
0.4436454129495272
  0
LINE
  5
6DB
330
1F
100
AcDbEntity
  8
0
100
AcDbLine
 10
1091.055779814748
 20
435.4411475589173
 30
-0.0000000000000465
 11
1091.055779814748
 21
437.8608940476594
 31
-0.0000000000000465
210
0.0
220
0.8962024032375964
230
0.4436454129495272
  0
LINE
  5
6DC
330
1F
100
AcDbEntity
  8
0
100
AcDbLine
 10
998.1601929764845
 20
424.8279984151292
 30
-0.0000000000000465
 11
998.1601929764845
 21
427.2477449038693
 31
-0.0000000000000465
210
0.0
220
0.8962024032375964
230
0.4436454129495272
  0
LINE
  5
6DD
330
1F
100
AcDbEntity
  8
0
100
AcDbLine
 10
1022.926939013402
 20
417.1095822180019
 30
-0.0000000000000465
 11
1022.748953981809
 21
417.0485163510226
 31
-0.0000000000000465
210
0.0
220
0.8962024032375964
230
0.4436454129495272
  0
ELLIPSE
  5
6DE
330
1F
100
AcDbEntity
  8
0
100
AcDbEllipse
 10
1022.481168441186
 20
506.6176752627149
 30
-0.0000000000000465
 11
-4.500000000000102
 21
0.0000000000000402
 31
-0.0000000000000001
210
0.0
220
0.0000000000000002
230
1.0
 40
0.4436454129495204
 41
0.6582816976452582
 42
1.699297518118321
  0
LINE
  5
6DF
330
1F
100
AcDbEntity
  8
0
100
AcDbLine
 10
1002.425241019228
 20
514.8596351367474
 30
-0.0000000000000465
 11
1018.921467809322
 21
505.3963579231172
 31
-0.0000000000000465
210
0.0
220
0.8962024032375964
230
0.4436454129495272
  0
LINE
  5
6E0
330
1F
100
AcDbEntity
  8
0
100
AcDbLine
 10
1014.846850526103
 20
584.3508730702002
 30
0.0
 11
1014.846850526103
 21
581.3900699612264
 31
0.0
  0
LWPOLYLINE
  5
6E1
330
1F
100
AcDbEntity
  8
0
100
AcDbPolyline
 90
        6
 70
     1
 43
0.0
 10
1049.441891542813
 20
563.4616442356697
 10
1049.441891542813
 20
577.6400699612264
 42
-0.4142135623730951
 10
1053.191891542813
 20
581.3900699612264
 10
1056.979136795026
 20
581.3900699612264
 42
-0.4142135623730951
 10
1060.729136795026
 20
577.6400699612264
 10
1060.729136795026
 20
563.4616442356697
  0
LINE
  5
6E2
330
1F
100
AcDbEntity
  8
0
100
AcDbLine
 10
1055.08551416892
 20
584.3508730702002
 30
0.0
 11
1055.08551416892
 21
581.3900699612264
 31
0.0
  0
LINE
  5
6E3
330
1F
100
AcDbEntity
  8
0
100
AcDbLine
 10
1070.08551416892
 20
599.3508730702002
 30
0.0
 11
1153.912600077245
 21
599.3508730702002
 31
0.0
  0
ARC
  5
6E4
330
1F
100
AcDbEntity
  8
0
100
AcDbCircle
 10
1070.08551416892
 20
584.3508730702002
 30
0.0
 40
15.0
100
AcDbArc
 50
90.0
 51
180.0
  0
LINE
  5
6E5
330
1F
100
AcDbEntity
  8
0
100
AcDbLine
 10
1168.912600077246
 20
584.3508730702002
 30
0.0
 11
1168.912600077244
 21
522.1453456089371
 31
0.0
  0
ARC
  5
6E6
330
1F
100
AcDbEntity
  8
0
100
AcDbCircle
 10
1153.912600077245
 20
584.3508730702002
 30
0.0
 40
15.0
100
AcDbArc
 50
0.0
 51
90.0
  0
LINE
  5
6E7
330
1F
100
AcDbEntity
  8
0
100
AcDbLine
 10
1183.912600077244
 20
507.1453456089371
 30
0.0
 11
1209.805347929871
 21
507.1453456089371
 31
0.0
  0
ARC
  5
6E8
330
1F
100
AcDbEntity
  8
0
100
AcDbCircle
 10
1183.912600077244
 20
522.1453456089371
 30
0.0
 40
15.0
100
AcDbArc
 50
180.0
 51
270.0
  0
LWPOLYLINE
  5
6E9
330
1F
100
AcDbEntity
  8
0
100
AcDbPolyline
 90
        6
 70
     1
 43
0.0
 10
1227.733773655428
 20
501.5017229828305
 10
1213.555347929871
 20
501.5017229828305
 42
-0.4142135623730951
 10
1209.805347929871
 20
505.2517229828305
 10
1209.805347929871
 20
509.0389682350438
 42
-0.4142135623730951
 10
1213.555347929871
 20
512.7889682350438
 10
1227.733773655428
 20
512.7889682350438
  0
MTEXT
  5
6EA
330
1F
100
AcDbEntity
  8
0
370
    13
100
AcDbMText
 10
963.6941631536965
 20
719.8755940523593
 30
0.0
 40
14.27783203125
 41
860.1399749757952
 71
     1
 72
     5
  1
Woofer Box\PSW-4B
  7
\U+6837式 1
 73
     1
 44
1.0
1001
ACAD
1000
MTEXTBEGIN
1070
    73
1070
     1
1070
    44
1040
1.0
1070
    74
1070
     0
1000
MTEXTEND
  0
MTEXT
  5
6EB
330
1F
100
AcDbEntity
  8
0
370
    13
100
AcDbMText
 10
999.899152653198
 20
393.1307763398369
 30
0.0
 40
14.27783203125
 41
860.1399749757952
 71
     1
 72
     5
  1
Woofer Box\PSW-4B
  7
\U+6837式 1
 73
     1
 44
1.0
1001
ACAD
1000
MTEXTBEGIN
1070
    73
1070
     1
1070
    44
1040
1.0
1070
    74
1070
     0
1000
MTEXTEND
  0
MTEXT
  5
6EC
330
1F
100
AcDbEntity
  8
0
370
    13
100
AcDbMText
 10
1075.488366657585
 20
975.3223992935932
 30
0.0
 40
14.27783203125
 41
131.2311823517708
 71
     2
 72
     5
  1
SPケーブル\PB
  7
\U+6837式 1
 73
     1
 44
1.0
1001
ACAD
1000
MTEXTBEGIN
1070
    73
1070
     1
1070
    44
1040
1.0
1070
    74
1070
     0
1000
MTEXTEND
  0
MTEXT
  5
6ED
330
1F
100
AcDbEntity
  8
0
370
    13
100
AcDbMText
 10
1111.693356157088
 20
648.577581581069
 30
0.0
 40
14.27783203125
 41
131.2311823517708
 71
     2
 72
     5
  1
SPケーブル\PB
  7
\U+6837式 1
 73
     1
 44
1.0
1001
ACAD
1000
MTEXTBEGIN
1070
    73
1070
     1
1070
    44
1040
1.0
1070
    74
1070
     0
1000
MTEXTEND
  0
DIMENSION
  5
6EE
102
{ACAD_XDICTIONARY
360
6EF
102
}
102
{ACAD_REACTORS
330
6F0
102
}
330
1F
100
AcDbEntity
  8
0
100
AcDbDimension
  2
*D8
 10
2131.912127259074
 20
1951.879613599263
 30
0.0
 11
1931.912127259074
 21
1984.379613599264
 31
0.0
 70
    32
 71
     5
 42
400.0
  3
sunopo　1
100
AcDbAlignedDimension
 13
1731.912127259074
 23
1874.79556372323
 33
0.0000000000000426
 14
2131.912127259074
 24
1874.79556372323
 34
0.0000000000000426
100
AcDbRotatedDimension
  0
DIMENSION
  5
6F1
102
{ACAD_XDICTIONARY
360
6F2
102
}
102
{ACAD_REACTORS
330
6F3
102
}
330
1F
100
AcDbEntity
  8
0
100
AcDbDimension
  2
*D9
 10
1657.857309367281
 20
1400.79556372323
 30
0.0
 11
1625.357309367281
 21
1637.795563723231
 31
0.0
 70
    32
 71
     5
 42
474.0
  3
sunopo　1
100
AcDbAlignedDimension
 13
1731.912127259074
 23
1874.79556372323
 33
0.0000000000000426
 14
1731.912127259074
 24
1400.79556372323
 34
-0.0000000000000426
 50
90.0
100
AcDbRotatedDimension
  0
DIMENSION
  5
6F4
102
{ACAD_XDICTIONARY
360
6F5
102
}
102
{ACAD_REACTORS
330
6F6
102
}
330
1F
100
AcDbEntity
  8
0
100
AcDbDimension
  2
*D10
 10
1459.246720081194
 20
1951.879613599263
 30
0.0
 11
1367.246720081194
 21
1984.379613599264
 31
0.0
 70
    32
 71
     5
 42
184.0
  3
sunopo　1
100
AcDbAlignedDimension
 13
1275.246720081194
 23
1874.79556372323
 33
0.0
 14
1459.246720081194
 24
1874.79556372323
 34
0.0
100
AcDbRotatedDimension
  0
LEADER
  5
6F7
330
1F
100
AcDbEntity
  8
0
100
AcDbLeader
  3
sunopo　1
 73
     0
 40
109.4412878787879
 41
303.2670454545455
 76
     3
 10
1951.912127259015
 20
2231.2013243522
 30
0.0
 10
2286.877369186313
 20
2013.43407499413
 30
0.0
 10
2592.908702839707
 20
2013.43407499413
 30
0.0
340
6F8
213
314.0085419003372
223
-137.4419371461808
233
0.0
1001
ACAD
1000
DSTYLE
1002
{
1070
   147
1040
15.0
1070
    77
1070
     0
1002
}
  0
MTEXT
  5
6F8
102
{ACAD_REACTORS
330
6F7
102
}
330
1F
100
AcDbEntity
  8
0
100
AcDbMText
 10
2293.90016093937
 20
2150.876012140311
 30
0.0
 40
35.0
 41
0.0
 71
     1
 72
     1
  1
\A1;入出力端子\P4Pスピコン×2
  7
\U+6837式 1
 73
     1
 44
1.0
1001
ACAD
1000
MTEXTBEGIN
1070
    73
1070
     1
1070
    44
1040
1.0
1070
    74
1070
     0
1000
MTEXTEND
  0
LEADER
  5
6F9
330
1F
100
AcDbEntity
  8
0
100
AcDbLeader
  3
sunopo　1
 40
109.4412878787879
 41
303.2670454545455
 76
     3
 10
1911.912127259016
 20
2231.2013243522
 30
0.0
 10
2286.877369186313
 20
2013.43407499413
 30
0.0
 10
2645.825125806277
 20
2013.43407499413
 30
0.0
213
314.0085419003372
223
-137.4419371461808
233
0.0
1001
ACAD
1000
DSTYLE
1002
{
1070
   147
1040
15.0
1070
    77
1070
     0
1002
}
  0
MTEXT
  5
6FA
330
1F
100
AcDbEntity
  8
0
100
AcDbMText
 10
2682.59769672399
 20
2226.401992080823
 30
0.0
 40
26.25
 41
0.0
 71
     1
 72
     1
  1
入力用コネクター×1　　1±（2±未使用）\P\PSP-16-R  SP-8-R  SP-4-R \Pへの出力コネクター×1　1±（2±未使用）
  7
\U+6837式 1
 73
     1
 44
1.0
1001
ACAD
1000
MTEXTBEGIN
1070
    73
1070
     1
1070
    44
1040
1.0
1070
    74
1070
     0
1000
MTEXTEND
  0
LWPOLYLINE
  5
6FB
330
1F
100
AcDbEntity
  8
0
100
AcDbPolyline
 90
        4
 70
     1
 43
0.0
 10
2645.825125806277
 20
2260.500360192666
 10
3379.135614585698
 20
2260.500360192666
 10
3379.135614585698
 20
2013.43407499413
 10
2645.825125806277
 20
2013.43407499413
  0
LEADER
  5
6FC
102
{ACAD_XDICTIONARY
360
6FD
102
}
102
{ACAD_REACTORS
330
6FE
102
}
330
1F
100
AcDbEntity
  8
0
100
AcDbLeader
  3
sunopo　1
 73
     0
 40
174.5359848484848
 41
547.2727272727273
 76
     3
 10
3262.881577646463
 20
1532.79556372323
 30
0.0
 10
3086.440286045679
 20
1197.526994884716
 30
0.0
 10
2550.609341009599
 20
1197.526994884718
 30
0.0
340
6FF
213
-535.7054606022393
223
55.29051197424099
233
0.0
1001
ACAD
1000
DSTYLE
1002
{
1070
   147
1040
15.0
1070
    77
1070
     0
1002
}
  0
MTEXT
  5
6FF
102
{ACAD_REACTORS
330
6FC
102
}
330
1F
100
AcDbEntity
  8
0
100
AcDbMText
 10
3071.314801611839
 20
1142.236482910478
 30
0.0
 40
35.0
 41
0.0
 71
     9
 72
     1
  1
\A1;壁面固定金具「SW-WSM」\P取り付けポイント\P8-M4ナット埋め込み
  7
\U+6837式 1
 73
     1
 44
1.0
1001
ACAD
1000
MTEXTBEGIN
1070
    73
1070
     1
1070
    44
1040
1.0
1070
    74
1070
     0
1000
MTEXTEND
  0
DIMENSION
  5
700
102
{ACAD_XDICTIONARY
360
701
102
}
102
{ACAD_REACTORS
330
702
102
}
330
1F
100
AcDbEntity
  8
0
100
AcDbDimension
  2
*D11
 10
2131.912127259074
 20
1221.566362510963
 30
0.0
 11
1931.912127259074
 21
1254.066362510963
 31
0.0
 70
    32
 71
     5
 42
400.0
  3
sunopo　1
100
AcDbAlignedDimension
 13
1731.912127259074
 23
1134.389803094258
 33
0.0
 14
2131.912127259074
 24
1134.389803094258
 34
0.0
100
AcDbRotatedDimension
  0
DIMENSION
  5
703
102
{ACAD_XDICTIONARY
360
704
102
}
102
{ACAD_REACTORS
330
705
102
}
330
1F
100
AcDbEntity
  8
0
100
AcDbDimension
  2
*D12
 10
1657.857309367281
 20
970.3898030942587
 30
0.0
 11
1625.357309367281
 21
1062.389803094259
 31
0.0
 70
    32
 71
     5
 42
184.0
  3
sunopo　1
100
AcDbAlignedDimension
 13
1751.912127259074
 23
1154.389803094258
 33
0.0
 14
1751.912127259075
 24
970.3898030942587
 34
0.0
 50
90.0
100
AcDbRotatedDimension
  0
MTEXT
  5
706
330
1F
100
AcDbEntity
  8
0
 62
     1
370
     9
100
AcDbMText
 10
992.6071236439483
 20
2388.340808819827
 30
485.9798679519593
 40
56.0
 41
0.0
 71
     1
 72
     1
  1
\A1;受注生産品
  7
\U+6837式 1
 73
     1
 44
1.0
1001
ACAD
1000
MTEXTBEGIN
1070
    73
1070
     1
1070
    44
1040
1.0
1070
    74
1070
     0
1000
MTEXTEND
  0
LWPOLYLINE
  5
707
330
1F
100
AcDbEntity
  8
0
 62
     1
370
     9
100
AcDbPolyline
 90
        8
 70
     1
 43
0.0
 10
971.1055050632593
 20
2420.991865701332
 10
1416.434754168592
 20
2420.991865701332
 42
-0.4142135623731049
 10
1446.434754168592
 20
2390.99186570133
 10
1446.434754168592
 20
2307.199465886312
 42
-0.4142135623730956
 10
1416.434754168592
 20
2277.199465886312
 10
971.1055050632666
 20
2277.199465886312
 42
-0.4142135623730764
 10
941.1055050632667
 20
2307.19946588631
 10
941.1055050632594
 20
2390.991865701332
 42
-0.4142135623730951
  0
MTEXT
  5
708
330
1F
100
AcDbEntity
  8
0
370
    15
100
AcDbMText
 10
41.84769168876743
 20
285.387809603743
 30
0.0
 40
23.26689288095982
 41
498.530260479879
 71
     1
 72
     5
  1
リオス株式会社　2014年
  7
\U+6837式 1
 73
     1
 44
1.0
1001
ACAD
1000
MTEXTBEGIN
1070
    73
1070
     1
1070
    44
1040
1.0
1070
    74
1070
     0
1000
MTEXTEND
  0
ENDSEC
  0
SECTION
  2
OBJECTS
  0
DICTIONARY
  5
C
330
0
100
AcDbDictionary
281
     1
  3
ACAD_COLOR
350
6B
  3
ACAD_GROUP
350
D
  3
ACAD_LAYOUT
350
1A
  3
ACAD_MATERIAL
350
6A
  3
ACAD_MLINESTYLE
350
17
  3
ACAD_PLOTSETTINGS
350
19
  3
ACAD_PLOTSTYLENAME
350
E
  3
ACAD_TABLESTYLE
350
7E
  3
ACAD_VISUALSTYLE
350
F2
  3
AcDbVariableDictionary
350
5E
  3
DWGPROPS
350
749
  0
DICTIONARY
  5
15D
330
2
100
AcDbDictionary
280
     1
281
     1
  3
ACAD_LAYERSTATES
360
15E
  0
DICTIONARY
  5
6EF
330
6EE
100
AcDbDictionary
280
     1
281
     1
  3
ACAD_DIMASSOC
360
6F0
  0
DICTIONARY
  5
6F2
330
6F1
100
AcDbDictionary
280
     1
281
     1
  3
ACAD_DIMASSOC
360
6F3
  0
DICTIONARY
  5
6F5
330
6F4
100
AcDbDictionary
280
     1
281
     1
  3
ACAD_DIMASSOC
360
6F6
  0
DICTIONARY
  5
6FD
330
6FC
100
AcDbDictionary
280
     1
281
     1
  3
ACAD_DIMASSOC
360
6FE
  0
DICTIONARY
  5
701
330
700
100
AcDbDictionary
280
     1
281
     1
  3
ACAD_DIMASSOC
360
702
  0
DICTIONARY
  5
704
330
703
100
AcDbDictionary
280
     1
281
     1
  3
ACAD_DIMASSOC
360
705
  0
DICTIONARY
  5
6B
102
{ACAD_REACTORS
330
C
102
}
330
C
100
AcDbDictionary
281
     1
  0
DICTIONARY
  5
D
102
{ACAD_REACTORS
330
C
102
}
330
C
100
AcDbDictionary
281
     1
  0
DICTIONARY
  5
1A
102
{ACAD_REACTORS
330
C
102
}
330
C
100
AcDbDictionary
281
     1
  3
Model
350
22
  3
レイアウト1
350
D3
  3
レイアウト2
350
D7
  0
DICTIONARY
  5
6A
102
{ACAD_REACTORS
330
C
102
}
330
C
100
AcDbDictionary
281
     1
  3
ByBlock
350
F0
  3
ByLayer
350
EF
  3
Global
350
F1
  0
DICTIONARY
  5
17
102
{ACAD_REACTORS
330
C
102
}
330
C
100
AcDbDictionary
281
     1
  3
Standard
350
18
  0
DICTIONARY
  5
19
102
{ACAD_REACTORS
330
C
102
}
330
C
100
AcDbDictionary
281
     1
  0
ACDBDICTIONARYWDFLT
  5
E
102
{ACAD_REACTORS
330
C
102
}
330
C
100
AcDbDictionary
281
     1
  3
Normal
350
F
100
AcDbDictionaryWithDefault
340
F
  0
DICTIONARY
  5
7E
102
{ACAD_REACTORS
330
C
102
}
330
C
100
AcDbDictionary
281
     1
  3
Standard
350
7F
  0
DICTIONARY
  5
F2
102
{ACAD_REACTORS
330
C
102
}
330
C
100
AcDbDictionary
281
     1
  3
2dWireframe
350
F8
  3
3D Hidden
350
FA
  3
3dWireframe
350
F9
  3
Basic
350
F7
  3
Brighten
350
FE
  3
ColorChange
350
102
  3
Conceptual
350
FB
  3
Dim
350
FD
  3
Facepattern
350
101
  3
Flat
350
F3
  3
FlatWithEdges
350
F4
  3
Gouraud
350
F5
  3
GouraudWithEdges
350
F6
  3
Linepattern
350
100
  3
Realistic
350
FC
  3
Thicken
350
FF
  0
DICTIONARY
  5
5E
102
{ACAD_REACTORS
330
C
102
}
330
C
100
AcDbDictionary
281
     1
  3
CTABLESTYLE
350
84
  3
DIMASSOC
350
5F
  3
HIDETEXT
350
63
  3
INDEXCTL
350
746
  3
PSOLHEIGHT
350
748
  3
PSOLWIDTH
350
747
  3
SORTENTS
350
745
  0
XRECORD
  5
749
102
{ACAD_REACTORS
330
C
102
}
330
C
100
AcDbXrecord
280
     1
  1
DWGPROPS COOKIE
  2

  3

  4

  6

  7

  8
オーナー
  9

300
=
301
=
302
=
303
=
304
=
305
=
306
=
307
=
308
=
309
=
 40
0.0002794097222222
 41
2456987.673223554
 42
2456987.673499711
  1

 90
        0
  0
DICTIONARY
  5
15E
102
{ACAD_REACTORS
330
15D
102
}
330
15D
100
AcDbDictionary
281
     1
  0
DIMASSOC
  5
6F0
102
{ACAD_REACTORS
330
6EF
102
}
330
6EF
100
AcDbDimAssoc
330
6EE
 90
        3
 70
     0
 71
     0
  1
AcDbOsnapPointRef
 72
     1
331
492
 73
     2
 91
        0
 40
1.0
 10
0.0
 20
0.0
 30
2.000000000000000E+50
 75
     0
  1
AcDbOsnapPointRef
 72
     8
331
494
 73
     2
 91
        0
 40
1.0
 10
0.0
 20
0.0
 30
0.0
 75
     1
  1
AcDbOsnapPointRef
 72
     1
331
492
 73
     2
 91
        0
 40
1.0
 10
0.0
 20
0.0
 30
2.000000000000000E+50
 75
     0
  0
DIMASSOC
  5
6F3
102
{ACAD_REACTORS
330
6F2
102
}
330
6F2
100
AcDbDimAssoc
330
6F1
 90
        2
 70
     0
 71
     0
  1
AcDbOsnapPointRef
 72
    13
331
485
 73
     2
 91
        0
 40
0.0
 10
0.0
 20
0.0
 30
2.000000000000000E+50
 75
     0
  0
DIMASSOC
  5
6F6
102
{ACAD_REACTORS
330
6F5
102
}
330
6F5
100
AcDbDimAssoc
330
6F4
 90
        3
 70
     0
 71
     0
  1
AcDbOsnapPointRef
 72
     1
331
4C3
 73
     2
 91
        0
 40
1.0
 10
0.0
 20
0.0
 30
2.000000000000000E+50
 75
     0
  1
AcDbOsnapPointRef
 72
    13
331
4C1
 73
     2
 91
        0
 40
0.0
 10
0.0
 20
0.0
 30
2.000000000000000E+50
 75
     0
  0
DIMASSOC
  5
6FE
102
{ACAD_REACTORS
330
6FD
102
}
330
6FD
100
AcDbDimAssoc
330
6FC
 90
        1
 70
     0
 71
     0
  1
AcDbOsnapPointRef
 72
     3
331
4AE
 73
     2
 91
        0
 40
0.0
 10
0.0
 20
0.0
 30
0.0
 75
     0
  0
DIMASSOC
  5
702
102
{ACAD_REACTORS
330
701
102
}
330
701
100
AcDbDimAssoc
330
700
 90
        3
 70
     0
 71
     0
  1
AcDbOsnapPointRef
 72
     1
331
4D6
 73
     2
 91
        0
 40
3.141592653589793
 10
0.0
 20
0.0
 30
2.000000000000000E+50
 75
     0
  1
AcDbOsnapPointRef
 72
    13
331
4D3
 73
     2
 91
        0
 40
0.0
 10
0.0
 20
0.0
 30
2.000000000000000E+50
 75
     0
  0
DIMASSOC
  5
705
102
{ACAD_REACTORS
330
704
102
}
330
704
100
AcDbDimAssoc
330
703
 90
        3
 70
     0
 71
     0
  1
AcDbOsnapPointRef
 72
    13
331
4D6
 73
     2
 91
        0
 40
1.570796326794896
 10
0.0
 20
0.0
 30
2.000000000000000E+50
 75
     0
  1
AcDbOsnapPointRef
 72
    13
331
4D0
 73
     2
 91
        0
 40
0.0
 10
0.0
 20
0.0
 30
2.000000000000000E+50
 75
     0
  0
LAYOUT
  5
22
102
{ACAD_XDICTIONARY
360
74A
102
}
102
{ACAD_REACTORS
330
1A
102
}
330
1A
100
AcDbPlotSettings
  1

  2
none_device
  4
ISO_A4_(210.00_x_297.00_MM)
  6

 40
7.5
 41
20.0
 42
7.5
 43
20.0
 44
210.0
 45
297.0
 46
11.54999923706054
 47
-13.65000009536743
 48
0.0
 49
0.0
140
0.0
141
0.0
142
1.0
143
8.704084754739808
 70
 11952
 72
     1
 73
     0
 74
     0
  7

 75
     0
147
0.1148885871608098
148
0.0
149
0.0
100
AcDbLayout
  1
Model
 70
     1
 71
     0
 10
0.0
 20
0.0
 11
12.0
 21
9.0
 12
0.0
 22
0.0
 32
0.0
 14
0.0
 24
0.0
 34
0.0
 15
0.0
 25
0.0
 35
0.0
146
0.0
 13
0.0
 23
0.0
 33
0.0
 16
1.0
 26
0.0
 36
0.0
 17
0.0
 27
1.0
 37
0.0
 76
     0
330
1F
331
ED
1001
ACAD_PSEXT
1000
None
1000
None
1000
Not applicable
1000
The layout will not be plotted unless a new plotter configuration name is selected.
1070
     0
  0
LAYOUT
  5
D3
102
{ACAD_XDICTIONARY
360
74E
102
}
102
{ACAD_REACTORS
330
1A
102
}
330
1A
100
AcDbPlotSettings
  1

  2
C:\Documents and Settings\basas\Application Data\Autodesk\AutoCAD 2005\R16.1\enu\plotters\Default Windows System Printer.pc3
  4

  6

 40
0.0
 41
0.0
 42
0.0
 43
0.0
 44
0.0
 45
0.0
 46
0.0
 47
0.0
 48
0.0
 49
0.0
140
0.0
141
0.0
142
1.0
143
1.0
 70
   688
 72
     0
 73
     0
 74
     5
  7

 75
    16
147
1.0
148
0.0
149
0.0
100
AcDbLayout
  1
レイアウト1
 70
     1
 71
     1
 10
0.0
 20
0.0
 11
12.0
 21
9.0
 12
0.0
 22
0.0
 32
0.0
 14
0.0
 24
0.0
 34
0.0
 15
0.0
 25
0.0
 35
0.0
146
0.0
 13
0.0
 23
0.0
 33
0.0
 16
1.0
 26
0.0
 36
0.0
 17
0.0
 27
1.0
 37
0.0
 76
     0
330
D2
  0
LAYOUT
  5
D7
102
{ACAD_XDICTIONARY
360
750
102
}
102
{ACAD_REACTORS
330
1A
102
}
330
1A
100
AcDbPlotSettings
  1

  2
C:\Documents and Settings\basas\Application Data\Autodesk\AutoCAD 2005\R16.1\enu\plotters\Default Windows System Printer.pc3
  4

  6

 40
0.0
 41
0.0
 42
0.0
 43
0.0
 44
0.0
 45
0.0
 46
0.0
 47
0.0
 48
0.0
 49
0.0
140
0.0
141
0.0
142
1.0
143
1.0
 70
   688
 72
     0
 73
     0
 74
     5
  7

 75
    16
147
1.0
148
0.0
149
0.0
100
AcDbLayout
  1
レイアウト2
 70
     1
 71
     2
 10
0.0
 20
0.0
 11
12.0
 21
9.0
 12
0.0
 22
0.0
 32
0.0
 14
0.0
 24
0.0
 34
0.0
 15
0.0
 25
0.0
 35
0.0
146
0.0
 13
0.0
 23
0.0
 33
0.0
 16
1.0
 26
0.0
 36
0.0
 17
0.0
 27
1.0
 37
0.0
 76
     0
330
D6
  0
MATERIAL
  5
F0
102
{ACAD_XDICTIONARY
360
754
102
}
102
{ACAD_REACTORS
330
6A
102
}
330
6A
100
AcDbMaterial
  1
ByBlock
  0
MATERIAL
  5
EF
102
{ACAD_XDICTIONARY
360
752
102
}
102
{ACAD_REACTORS
330
6A
102
}
330
6A
100
AcDbMaterial
  1
ByLayer
  0
MATERIAL
  5
F1
102
{ACAD_XDICTIONARY
360
756
102
}
102
{ACAD_REACTORS
330
6A
102
}
330
6A
100
AcDbMaterial
  1
Global
  0
MLINESTYLE
  5
18
102
{ACAD_REACTORS
330
17
102
}
330
17
100
AcDbMlineStyle
  2
STANDARD
 70
     0
  3

 62
   256
 51
90.0
 52
90.0
 71
     2
 49
0.5
 62
   256
  6
BYLAYER
 49
-0.5
 62
   256
  6
BYLAYER
  0
ACDBPLACEHOLDER
  5
F
102
{ACAD_REACTORS
330
E
102
}
330
E
  0
TABLESTYLE
  5
7F
102
{ACAD_XDICTIONARY
360
74C
102
}
102
{ACAD_REACTORS
330
7E
102
}
330
7E
100
AcDbTableStyle
  3
Standard
 70
     0
 71
     0
 40
1.5
 41
1.5
280
     0
281
     0
  7
Standard
140
4.5
170
     2
 62
     0
 63
     7
283
     0
274
    -2
284
     1
 64
     0
275
    -2
285
     1
 65
     0
276
    -2
286
     1
 66
     0
277
    -2
287
     1
 67
     0
278
    -2
288
     1
 68
     0
279
    -2
289
     1
 69
     0
  7
Standard
140
6.0
170
     5
 62
     0
 63
     7
283
     0
274
    -2
284
     1
 64
     0
275
    -2
285
     1
 65
     0
276
    -2
286
     1
 66
     0
277
    -2
287
     1
 67
     0
278
    -2
288
     1
 68
     0
279
    -2
289
     1
 69
     0
  7
Standard
140
4.5
170
     5
 62
     0
 63
     7
283
     0
274
    -2
284
     1
 64
     0
275
    -2
285
     1
 65
     0
276
    -2
286
     1
 66
     0
277
    -2
287
     1
 67
     0
278
    -2
288
     1
 68
     0
279
    -2
289
     1
 69
     0
  0
VISUALSTYLE
  5
F8
102
{ACAD_REACTORS
330
F2
102
}
330
F2
100
AcDbVisualStyle
  2
2dWireframe
 70
     4
 71
     0
 72
     2
 73
     1
 90
        0
 40
-0.6
 41
-30.0
 62
     5
 63
     7
 74
     1
 91
        4
 64
     7
 65
   257
 75
     1
175
     1
 42
1.0
 92
        0
 66
   257
 43
1.0
 76
     1
 77
     6
 78
     2
 67
     7
 79
     5
170
     0
171
     0
290
     0
174
     0
 93
        1
 44
0.0
173
     0
291
     0
 45
0.0
1001
ACAD
1000
AcDbSavedByObjectVersion
1070
     0
  0
VISUALSTYLE
  5
FA
102
{ACAD_REACTORS
330
F2
102
}
330
F2
100
AcDbVisualStyle
  2
3D Hidden
 70
     6
 71
     1
 72
     2
 73
     2
 90
        0
 40
-0.6
 41
-30.0
 62
     5
 63
     7
 74
     2
 91
        2
 64
     7
 65
   257
 75
     2
175
     1
 42
40.0
 92
        0
 66
   257
 43
1.0
 76
     1
 77
     6
 78
     2
 67
     7
 79
     3
170
     0
171
     0
290
     0
174
     0
 93
        1
 44
0.0
173
     0
291
     0
 45
0.0
1001
ACAD
1000
AcDbSavedByObjectVersion
1070
     0
  0
VISUALSTYLE
  5
F9
102
{ACAD_REACTORS
330
F2
102
}
330
F2
100
AcDbVisualStyle
  2
3dWireframe
 70
     5
 71
     0
 72
     2
 73
     1
 90
        0
 40
-0.6
 41
-30.0
 62
     5
 63
     7
 74
     1
 91
        4
 64
     7
 65
   257
 75
     1
175
     1
 42
1.0
 92
        0
 66
   257
 43
1.0
 76
     1
 77
     6
 78
     2
 67
     7
 79
     5
170
     0
171
     0
290
     0
174
     0
 93
        1
 44
0.0
173
     0
291
     0
 45
0.0
1001
ACAD
1000
AcDbSavedByObjectVersion
1070
     0
  0
VISUALSTYLE
  5
F7
102
{ACAD_REACTORS
330
F2
102
}
330
F2
100
AcDbVisualStyle
  2
Basic
 70
     7
 71
     1
 72
     0
 73
     1
 90
        0
 40
-0.6
 41
-30.0
 62
     5
 63
     7
 74
     0
 91
        4
 64
     7
 65
   257
 75
     1
175
     1
 42
1.0
 92
        8
 66
     7
 43
1.0
 76
     1
 77
     6
 78
     2
 67
     7
 79
     5
170
     0
171
     0
290
     0
174
     0
 93
        1
 44
0.0
173
     0
291
     1
 45
0.0
1001
ACAD
1000
AcDbSavedByObjectVersion
1070
     0
  0
VISUALSTYLE
  5
FE
102
{ACAD_REACTORS
330
F2
102
}
330
F2
100
AcDbVisualStyle
  2
Brighten
 70
    12
 71
     2
 72
     2
 73
     1
 90
        0
 40
-0.6
 41
-30.0
 62
     5
 63
     7
 74
     1
 91
        4
 64
     7
 65
   257
 75
     1
175
     1
 42
1.0
 92
        8
 66
     7
 43
1.0
 76
     1
 77
     6
 78
     2
 67
     7
 79
     5
170
     0
171
     0
290
     0
174
     0
 93
        1
 44
50.0
173
     0
291
     1
 45
0.0
1001
ACAD
1000
AcDbSavedByObjectVersion
1070
     0
  0
VISUALSTYLE
  5
102
102
{ACAD_REACTORS
330
F2
102
}
330
F2
100
AcDbVisualStyle
  2
ColorChange
 70
    16
 71
     2
 72
     2
 73
     3
 90
        0
 40
-0.6
 41
-30.0
 62
     5
 63
     8
 74
     1
 91
        4
 64
     7
 65
   257
 75
     1
175
     1
 42
1.0
 92
        8
 66
     8
 43
1.0
 76
     1
 77
     6
 78
     2
 67
     7
 79
     5
170
     0
171
     0
290
     0
174
     0
 93
        1
 44
0.0
173
     0
291
     1
 45
0.0
1001
ACAD
1000
AcDbSavedByObjectVersion
1070
     0
  0
VISUALSTYLE
  5
FB
102
{ACAD_REACTORS
330
F2
102
}
330
F2
100
AcDbVisualStyle
  2
Conceptual
 70
     9
 71
     3
 72
     2
 73
     1
 90
        0
 40
-0.6
 41
-30.0
 62
     5
 63
     7
 74
     2
 91
        2
 64
     7
 65
   257
 75
     1
175
     1
 42
40.0
 92
        8
 66
     7
 43
1.0
 76
     1
 77
     6
 78
     2
 67
     7
 79
     3
170
     0
171
     0
290
     0
174
     0
 93
        1
 44
0.0
173
     0
291
     0
 45
0.0
1001
ACAD
1000
AcDbSavedByObjectVersion
1070
     0
  0
VISUALSTYLE
  5
FD
102
{ACAD_REACTORS
330
F2
102
}
330
F2
100
AcDbVisualStyle
  2
Dim
 70
    11
 71
     2
 72
     2
 73
     1
 90
        0
 40
-0.6
 41
-30.0
 62
     5
 63
     7
 74
     1
 91
        4
 64
     7
 65
   257
 75
     1
175
     1
 42
1.0
 92
        8
 66
     7
 43
1.0
 76
     1
 77
     6
 78
     2
 67
     7
 79
     5
170
     0
171
     0
290
     0
174
     0
 93
        1
 44
-50.0
173
     0
291
     1
 45
0.0
1001
ACAD
1000
AcDbSavedByObjectVersion
1070
     0
  0
VISUALSTYLE
  5
101
102
{ACAD_REACTORS
330
F2
102
}
330
F2
100
AcDbVisualStyle
  2
Facepattern
 70
    15
 71
     2
 72
     2
 73
     1
 90
        0
 40
-0.6
 41
-30.0
 62
     5
 63
     7
 74
     1
 91
        4
 64
     7
 65
   257
 75
     1
175
     1
 42
1.0
 92
        8
 66
     7
 43
1.0
 76
     1
 77
     6
 78
     2
 67
     7
 79
     5
170
     0
171
     0
290
     0
174
     0
 93
        1
 44
0.0
173
     0
291
     1
 45
0.0
1001
ACAD
1000
AcDbSavedByObjectVersion
1070
     0
  0
VISUALSTYLE
  5
F3
102
{ACAD_REACTORS
330
F2
102
}
330
F2
100
AcDbVisualStyle
  2
Flat
 70
     0
 71
     2
 72
     1
 73
     1
 90
        2
 40
-0.6
 41
30.0
 62
     5
 63
     7
 74
     0
 91
        4
 64
     7
 65
   257
 75
     1
175
     1
 42
1.0
 92
        8
 66
     7
 43
1.0
 76
     1
 77
     6
 78
     2
 67
     7
 79
     5
170
     0
171
     0
290
     0
174
     0
 93
       13
 44
0.0
173
     0
291
     1
 45
0.0
1001
ACAD
1000
AcDbSavedByObjectVersion
1070
     0
  0
VISUALSTYLE
  5
F4
102
{ACAD_REACTORS
330
F2
102
}
330
F2
100
AcDbVisualStyle
  2
FlatWithEdges
 70
     1
 71
     2
 72
     1
 73
     1
 90
        2
 40
-0.6
 41
30.0
 62
     5
 63
     7
 74
     1
 91
        4
 64
     7
 65
   257
 75
     1
175
     1
 42
1.0
 92
        0
 66
   257
 43
1.0
 76
     1
 77
     6
 78
     2
 67
     7
 79
     5
170
     0
171
     0
290
     0
174
     0
 93
       13
 44
0.0
173
     0
291
     1
 45
0.0
1001
ACAD
1000
AcDbSavedByObjectVersion
1070
     0
  0
VISUALSTYLE
  5
F5
102
{ACAD_REACTORS
330
F2
102
}
330
F2
100
AcDbVisualStyle
  2
Gouraud
 70
     2
 71
     2
 72
     2
 73
     1
 90
        2
 40
-0.6
 41
30.0
 62
     5
 63
     7
 74
     0
 91
        4
 64
     7
 65
   257
 75
     1
175
     1
 42
1.0
 92
        0
 66
     7
 43
1.0
 76
     1
 77
     6
 78
     2
 67
     7
 79
     5
170
     0
171
     0
290
     0
174
     0
 93
       13
 44
0.0
173
     0
291
     1
 45
0.0
1001
ACAD
1000
AcDbSavedByObjectVersion
1070
     0
  0
VISUALSTYLE
  5
F6
102
{ACAD_REACTORS
330
F2
102
}
330
F2
100
AcDbVisualStyle
  2
GouraudWithEdges
 70
     3
 71
     2
 72
     2
 73
     1
 90
        2
 40
-0.6
 41
30.0
 62
     5
 63
     7
 74
     1
 91
        4
 64
     7
 65
   257
 75
     1
175
     1
 42
1.0
 92
        0
 66
   257
 43
1.0
 76
     1
 77
     6
 78
     2
 67
     7
 79
     5
170
     0
171
     0
290
     0
174
     0
 93
       13
 44
0.0
173
     0
291
     1
 45
0.0
1001
ACAD
1000
AcDbSavedByObjectVersion
1070
     0
  0
VISUALSTYLE
  5
100
102
{ACAD_REACTORS
330
F2
102
}
330
F2
100
AcDbVisualStyle
  2
Linepattern
 70
    14
 71
     2
 72
     2
 73
     1
 90
        0
 40
-0.6
 41
-30.0
 62
     5
 63
     7
 74
     1
 91
        4
 64
     7
 65
   257
 75
     7
175
     7
 42
1.0
 92
        8
 66
     7
 43
1.0
 76
     1
 77
     6
 78
     2
 67
     7
 79
     5
170
     0
171
     0
290
     0
174
     0
 93
        1
 44
0.0
173
     0
291
     1
 45
0.0
1001
ACAD
1000
AcDbSavedByObjectVersion
1070
     0
  0
VISUALSTYLE
  5
FC
102
{ACAD_REACTORS
330
F2
102
}
330
F2
100
AcDbVisualStyle
  2
Realistic
 70
     8
 71
     2
 72
     2
 73
     1
 90
        0
 40
-0.6
 41
-30.0
 62
     5
 63
     7
 74
     1
 91
        0
 64
     7
 65
   257
 75
     1
175
     1
 42
1.0
 92
        8
 66
     8
 43
1.0
 76
     1
 77
     6
 78
     2
 67
     7
 79
     5
170
     0
171
     0
290
     0
174
     0
 93
       13
 44
0.0
173
     0
291
     0
 45
0.0
1001
ACAD
1000
AcDbSavedByObjectVersion
1070
     0
  0
VISUALSTYLE
  5
FF
102
{ACAD_REACTORS
330
F2
102
}
330
F2
100
AcDbVisualStyle
  2
Thicken
 70
    13
 71
     2
 72
     2
 73
     1
 90
        0
 40
-0.6
 41
-30.0
 62
     5
 63
     7
 74
     1
 91
        4
 64
     7
 65
   257
 75
     1
175
     1
 42
1.0
 92
       12
 66
     7
 43
1.0
 76
     1
 77
     6
 78
     2
 67
     7
 79
     5
170
     0
171
     0
290
     0
174
     0
 93
        1
 44
0.0
173
     0
291
     1
 45
0.0
1001
ACAD
1000
AcDbSavedByObjectVersion
1070
     0
  0
DICTIONARYVAR
  5
84
102
{ACAD_REACTORS
330
5E
102
}
330
5E
100
DictionaryVariables
280
     0
  1
STANDARD
  0
DICTIONARYVAR
  5
5F
102
{ACAD_REACTORS
330
5E
102
}
330
5E
100
DictionaryVariables
280
     0
  1
2
  0
DICTIONARYVAR
  5
63
102
{ACAD_REACTORS
330
5E
102
}
330
5E
100
DictionaryVariables
280
     0
  1
1
  0
DICTIONARYVAR
  5
746
102
{ACAD_REACTORS
330
5E
102
}
330
5E
100
DictionaryVariables
280
     0
  1
0
  0
DICTIONARYVAR
  5
748
102
{ACAD_REACTORS
330
5E
102
}
330
5E
100
DictionaryVariables
280
     0
  1
80.000000
  0
DICTIONARYVAR
  5
747
102
{ACAD_REACTORS
330
5E
102
}
330
5E
100
DictionaryVariables
280
     0
  1
5.000000
  0
DICTIONARYVAR
  5
745
102
{ACAD_REACTORS
330
5E
102
}
330
5E
100
DictionaryVariables
280
     0
  1
127
  0
DICTIONARY
  5
74A
330
22
100
AcDbDictionary
280
     1
281
     1
  3
ACAD_XREC_ROUNDTRIP
360
74B
  0
DICTIONARY
  5
74E
330
D3
100
AcDbDictionary
280
     1
281
     1
  3
ACAD_XREC_ROUNDTRIP
360
74F
  0
DICTIONARY
  5
750
330
D7
100
AcDbDictionary
280
     1
281
     1
  3
ACAD_XREC_ROUNDTRIP
360
751
  0
DICTIONARY
  5
754
330
F0
100
AcDbDictionary
280
     1
281
     1
  3
ACAD_XREC_ROUNDTRIP
360
755
  0
DICTIONARY
  5
752
330
EF
100
AcDbDictionary
280
     1
281
     1
  3
ACAD_XREC_ROUNDTRIP
360
753
  0
DICTIONARY
  5
756
330
F1
100
AcDbDictionary
280
     1
281
     1
  3
ACAD_XREC_ROUNDTRIP
360
757
  0
DICTIONARY
  5
74C
330
7F
100
AcDbDictionary
280
     1
281
     1
  3
ACAD_XREC_ROUNDTRIP
360
74D
  0
XRECORD
  5
74B
102
{ACAD_REACTORS
330
74A
102
}
330
74A
100
AcDbXrecord
280
     1
102
SHADEPLOT
 70
     0
102
SHADEPLOTRESLEVEL
 70
     2
102
SHADEPLOTCUSTOMDPI
 70
   300
  0
XRECORD
  5
74F
102
{ACAD_REACTORS
330
74E
102
}
330
74E
100
AcDbXrecord
280
     1
102
SHADEPLOT
 70
     0
102
SHADEPLOTRESLEVEL
 70
     2
102
SHADEPLOTCUSTOMDPI
 70
   300
  0
XRECORD
  5
751
102
{ACAD_REACTORS
330
750
102
}
330
750
100
AcDbXrecord
280
     1
102
SHADEPLOT
 70
     0
102
SHADEPLOTRESLEVEL
 70
     2
102
SHADEPLOTCUSTOMDPI
 70
   300
  0
XRECORD
  5
755
102
{ACAD_REACTORS
330
754
102
}
330
754
100
AcDbXrecord
280
     1
102
MATERIAL
148
0.0
149
0.0
149
0.0
 93
        0
 94
       63
282
     0
 72
     1
 77
     1
171
     1
175
     1
179
     1
273
     0
  0
XRECORD
  5
753
102
{ACAD_REACTORS
330
752
102
}
330
752
100
AcDbXrecord
280
     1
102
MATERIAL
148
0.0
149
0.0
149
0.0
 93
        0
 94
       63
282
     0
 72
     1
 77
     1
171
     1
175
     1
179
     1
273
     0
  0
XRECORD
  5
757
102
{ACAD_REACTORS
330
756
102
}
330
756
100
AcDbXrecord
280
     1
102
MATERIAL
148
0.0
149
0.0
149
0.0
 93
        0
 94
       63
282
     0
 72
     1
 77
     1
171
     1
175
     1
179
     1
273
     0
  0
XRECORD
  5
74D
102
{ACAD_REACTORS
330
74C
102
}
330
74C
100
AcDbXrecord
280
     1
102
ACAD_ROUNDTRIP_PRE2007_TABLESTYLE
 90
      512
 91
        0
  1

 92
      512
 93
        0
  2

 94
      512
 95
        0
  3

  0
ENDSEC
  0
EOF
